<?xml version="1.0" standalone="no"?>
<!DOCTYPE svg PUBLIC "-//W3C//DTD SVG 1.1//EN" "http://www.w3.org/Graphics/SVG/1.1/DTD/svg11.dtd" >
<svg xmlns="http://www.w3.org/2000/svg">
<metadata>
<json>
<![CDATA[
{
	"fontFamily": "Linearicons",
	"majorVersion": 2,
	"minorVersion": 0,
	"fontURL": "http://linearicons.com",
	"designer": "",
	"designerURL": "http://perxis.com",
	"license": "http://linearicons.com/license",
	"licenseURL": "http://linearicons.com/license",
	"copyright": "Copyright © 2015 Perxis.com. All Rights Reserved.",
	"description": "Designed by Perxis (http://perxis.com).\nFont generated by IcoMoon.",
	"version": "Version 2.0",
	"fontId": "Linearicons",
	"psName": "Linearicons",
	"subFamily": "Regular",
	"fullName": "Linearicons"
}
]]>
</json>
</metadata>
<defs>
<font id="Linearicons" horiz-adv-x="2048">
<font-face units-per-em="2048" ascent="1945.6" descent="-102.4" />
<missing-glyph horiz-adv-x="2048" />
<glyph unicode="&#x20;" horiz-adv-x="819.2" d="" />
<glyph unicode="&#x21;" glyph-name="uni21" data-tags="exclam" horiz-adv-x="513" d="M256 307.2c-28.276 0-51.2 22.922-51.2 51.2v102.4c0 28.278 22.924 51.2 51.2 51.2s51.2-22.922 51.2-51.2v-102.4c0-28.278-22.924-51.2-51.2-51.2zM256 716.8c-28.276 0-51.2 22.922-51.2 51.2v819.2c0 28.276 22.924 51.2 51.2 51.2s51.2-22.924 51.2-51.2v-819.2c0-28.278-22.924-51.2-51.2-51.2z" />
<glyph unicode="&#x22;" glyph-name="uni22" data-tags="quote" horiz-adv-x="512" d="M153.6 1331.2c-28.276 0-51.2 22.922-51.2 51.2v307.2c0 28.278 22.924 51.2 51.2 51.2 28.278 0 51.2-22.922 51.2-51.2v-307.2c0-28.278-22.922-51.2-51.2-51.2zM358.4 1331.2c-28.276 0-51.2 22.922-51.2 51.2v307.2c0 28.278 22.924 51.2 51.2 51.2 28.278 0 51.2-22.922 51.2-51.2v-307.2c0-28.278-22.922-51.2-51.2-51.2z" />
<glyph unicode="&#x23;" glyph-name="uni23" data-tags="#" horiz-adv-x="1434" d="M1280 1331.2h-195.558l41.264 247.584c4.65 27.892-14.196 54.272-42.086 58.922-27.862 4.652-54.268-14.196-58.918-42.086l-44.074-264.42h-408.186l41.264 247.584c4.65 27.892-14.196 54.272-42.086 58.922-27.856 4.652-54.268-14.196-58.918-42.086l-44.074-264.42h-212.628c-28.276 0-51.2-22.924-51.2-51.2s22.924-51.2 51.2-51.2h195.562l-85.334-512h-212.628c-28.276 0-51.2-22.922-51.2-51.2s22.924-51.2 51.2-51.2h195.562l-41.264-247.584c-4.65-27.892 14.196-54.268 42.086-58.918 2.852-0.474 5.684-0.708 8.48-0.708 24.576 0 46.266 17.75 50.442 42.794l44.068 264.416h408.192l-41.268-247.584c-4.65-27.892 14.196-54.268 42.086-58.918 2.848-0.474 5.68-0.708 8.476-0.708 24.576 0 46.266 17.75 50.442 42.794l44.070 264.416h212.628c28.278 0 51.2 22.922 51.2 51.2s-22.922 51.2-51.2 51.2h-195.562l85.334 512h212.628c28.278 0 51.2 22.924 51.2 51.2s-22.922 51.2-51.2 51.2zM878.228 716.8h-408.188l85.334 512h408.188l-85.334-512z" />
<glyph unicode="&#x24;" glyph-name="uni24" data-tags="$" horiz-adv-x="1126" d="M870.598 921.024c-83.1 48.476-190.812 75.404-294.98 101.446-230.726 57.684-370.82 103.798-370.82 257.53 0 35.156 7.44 102.396 57.258 157.748 58.676 65.196 159.994 98.252 301.142 98.252 235.596 0 379.92-92.96 381.2-93.802 23.526-15.684 55.312-9.328 71.002 14.202 15.686 23.526 9.328 55.316-14.202 71.002-6.352 4.236-149.002 97.52-386.8 109.684v154.916c0 28.276-22.922 51.2-51.2 51.2-28.276 0-51.2-22.924-51.2-51.2v-155.020c-145.664-8.156-255.212-52.012-326.058-130.726-72.688-80.768-83.542-176.422-83.542-226.252 0-110.112 51.612-196.048 153.402-255.424 83.1-48.476 190.812-75.404 294.982-101.446 230.724-57.684 370.816-103.798 370.816-257.53 0-35.156-7.436-102.396-57.258-157.75-58.676-65.194-159.994-98.25-301.142-98.25-234.548 0-378.63 92.134-381.322 93.882-23.514 15.584-55.22 9.21-70.88-14.282-15.684-23.53-9.328-55.316 14.202-71.002 6.356-4.236 149.002-97.524 386.8-109.686v-154.912c0-28.278 22.924-51.2 51.2-51.2 28.278 0 51.2 22.922 51.2 51.2v155.020c145.66 8.156 255.216 52.016 326.058 130.73 72.688 80.764 83.542 176.42 83.542 226.25 0 110.108-51.612 196.048-153.402 255.424z" />
<glyph unicode="&#x25;" glyph-name="uni25" data-tags="#" horiz-adv-x="1434" d="M255.962 307.196c-10.692 0-21.468 3.334-30.682 10.244-22.62 16.966-27.206 49.056-10.24 71.676l921.6 1228.8c16.964 22.62 49.060 27.21 71.676 10.24 22.62-16.966 27.206-49.060 10.24-71.68l-921.6-1228.8c-10.054-13.408-25.43-20.48-40.996-20.48zM1075.2 307.2c-110.18 0-185.878 39.668-224.996 117.904-31.004 62.010-31.004 135.578-31.004 189.296s0 127.286 31.004 189.296c39.116 78.236 114.816 117.904 224.996 117.904s185.878-39.668 224.998-117.904c31.004-62.010 31.004-135.578 31.004-189.296s0-127.286-31.004-189.296c-39.12-78.236-114.82-117.904-224.998-117.904zM1075.2 819.2c-142.908 0-153.6-81.092-153.6-204.8s10.692-204.8 153.6-204.8c142.912 0 153.604 81.092 153.604 204.8s-10.692 204.8-153.604 204.8zM358.4 1024c-110.18 0-185.878 39.668-224.996 117.904-31.004 62.010-31.004 135.578-31.004 189.296s0 127.286 31.004 189.296c39.116 78.236 114.816 117.904 224.996 117.904s185.878-39.668 224.998-117.9c31.004-62.010 31.004-135.58 31.004-189.3s0-127.286-31.004-189.3c-39.12-78.234-114.82-117.9-224.998-117.9zM358.4 1536c-142.908 0-153.6-81.088-153.6-204.8s10.692-204.8 153.6-204.8c142.912 0 153.604 81.088 153.604 204.8s-10.692 204.8-153.604 204.8z" />
<glyph unicode="&#x26;" glyph-name="uni26" data-tags="&" horiz-adv-x="1126" d="M972.8 409.6h-74.182l-32.416 51.324c30.98 52.49 48.716 119.168 53.796 201.524l0.096 1.574v308.778c0 28.276-22.922 51.2-51.2 51.2s-51.2-22.924-51.2-51.2v-305.594c-2.528-39.53-8.14-73.456-17.066-102.454l-493.254 780.988c1.574 64.908 13.984 108.9 38.704 137.738 30.288 35.34 84.564 52.522 165.924 52.522 72.474 0 124.982-14.262 156.064-42.388 26.74-24.198 41.596-61.060 46.746-115.994 2.636-28.154 27.628-48.82 55.754-46.198 28.154 2.64 48.838 27.6 46.198 55.756-15.85 169.046-115.536 251.222-304.762 251.222-113.050 0-192.756-28.876-243.674-88.278-43.34-50.566-63.526-120.128-63.526-218.922 0-9.676 2.742-19.158 7.914-27.34l125.228-198.278c-70.646-20.198-124.25-55.408-162.688-106.598-49.024-65.292-72.854-157.59-72.854-282.182 0-145.46 31.204-244.41 98.198-311.402s165.942-98.198 311.402-98.198c126.886 0 217.572 23.54 283.532 73.866l31.58-50.006c9.376-14.854 25.718-23.86 43.286-23.86h102.4c28.278 0 51.2 22.922 51.2 51.2s-22.922 51.2-51.2 51.2zM512 409.6c-116.522 0-192.468 21.67-238.998 68.202s-68.202 122.476-68.202 238.998c0 101.6 17.124 173.792 52.34 220.694 29.584 39.398 74.068 64.124 138.518 76.7l344.848-546.010c-46.668-39.414-121.424-58.586-228.506-58.586z" />
<glyph unicode="&#x27;" glyph-name="uni27" data-tags="apostrophe" horiz-adv-x="308" d="M153.6 1331.2c-28.276 0-51.2 22.922-51.2 51.2v307.2c0 28.278 22.924 51.2 51.2 51.2 28.278 0 51.2-22.922 51.2-51.2v-307.2c0-28.278-22.922-51.2-51.2-51.2z" />
<glyph unicode="&#x28;" glyph-name="uni28" data-tags="(" horiz-adv-x="614" d="M460.822 0c-14.428 0-28.772 6.068-38.896 17.878-3.306 3.856-81.808 96.198-160.522 253.626-72.538 145.076-159.004 375.626-159.004 650.096 0 274.474 86.468 505.020 159.004 650.096 78.714 157.428 157.216 249.77 160.522 253.622 18.404 21.468 50.73 23.956 72.196 5.552 21.468-18.4 23.956-50.726 5.552-72.196-0.704-0.826-74.976-88.588-148.118-235.66-66.948-134.618-146.756-348.24-146.756-601.414 0-487.42 291.926-833.642 294.874-837.078 18.404-21.472 15.916-53.796-5.552-72.198-9.654-8.272-21.508-12.324-33.3-12.324z" />
<glyph unicode="&#x29;" glyph-name="uni29" data-tags=")" horiz-adv-x="614" d="M153.578 0c14.428 0 28.772 6.068 38.896 17.878 3.306 3.856 81.808 96.198 160.522 253.626 72.538 145.076 159.004 375.626 159.004 650.096 0 274.474-86.468 505.020-159.004 650.096-78.714 157.428-157.216 249.77-160.522 253.622-18.404 21.468-50.73 23.956-72.196 5.552-21.468-18.4-23.956-50.726-5.552-72.196 0.704-0.826 74.976-88.588 148.118-235.66 66.948-134.618 146.756-348.24 146.756-601.414 0-487.42-291.926-833.642-294.874-837.078-18.404-21.472-15.916-53.796 5.552-72.198 9.654-8.272 21.508-12.324 33.3-12.324z" />
<glyph unicode="&#x2a;" glyph-name="uni2a" data-tags="*" horiz-adv-x="922" d="M796.4 1425.002l-243.296 162.198 243.296 162.198c23.53 15.686 29.888 47.476 14.202 71.002-15.686 23.53-47.476 29.888-71.002 14.202l-227.6-151.734v211.532c0 28.276-22.924 51.2-51.2 51.2s-51.2-22.924-51.2-51.2v-211.532l-227.6 151.734c-23.53 15.68-55.316 9.328-71.002-14.202-15.684-23.526-9.328-55.316 14.202-71.002l243.296-162.198-243.296-162.198c-23.53-15.686-29.884-47.476-14.202-71.002 9.866-14.8 26.102-22.804 42.65-22.804 9.756 0 19.626 2.784 28.352 8.602l227.6 151.734v-211.532c0-28.276 22.924-51.2 51.2-51.2s51.2 22.924 51.2 51.2v211.532l227.6-151.734c8.73-5.818 18.596-8.602 28.352-8.602 16.544 0 32.78 8.006 42.646 22.804 15.69 23.526 9.332 55.316-14.198 71.002z" />
<glyph unicode="&#x2b;" glyph-name="uni2b" data-tags="+" horiz-adv-x="1126" d="M972.8 921.6h-358.4v358.4c0 28.276-22.922 51.2-51.2 51.2-28.276 0-51.2-22.924-51.2-51.2v-358.4h-358.4c-28.276 0-51.2-22.922-51.2-51.2s22.924-51.2 51.2-51.2h358.4v-358.4c0-28.278 22.924-51.2 51.2-51.2 28.278 0 51.2 22.922 51.2 51.2v358.4h358.4c28.278 0 51.2 22.922 51.2 51.2s-22.922 51.2-51.2 51.2z" />
<glyph unicode="&#x2c;" glyph-name="uni2c" data-tags="comma" horiz-adv-x="410" d="M307.2 460.8c0 28.278-22.922 51.2-51.2 51.2h-102.4c-28.276 0-51.2-22.922-51.2-51.2s22.924-51.2 51.2-51.2h48.816c-13.718-144.544-82.074-216.752-85.296-220.074l0.26 0.26c-9.254-9.268-14.98-22.058-14.98-36.186 0-28.278 22.924-51.2 51.2-51.2 14.15 0 26.956 5.74 36.224 15.018 4.988 4.996 117.376 120.148 117.376 343.382z" />
<glyph unicode="&#x2d;" glyph-name="uni2d" data-tags="dash" horiz-adv-x="716" d="M614.4 768c0-28.276-22.922-51.2-51.2-51.2h-409.6c-28.278 0-51.2 22.924-51.2 51.2 0 28.278 22.922 51.2 51.2 51.2h409.6c28.278 0 51.2-22.922 51.2-51.2z" />
<glyph unicode="&#x2e;" glyph-name="uni2e" data-tags="dot" horiz-adv-x="308" d="M153.6 307.2c-28.276 0-51.2 22.922-51.2 51.2v102.4c0 28.278 22.924 51.2 51.2 51.2 28.278 0 51.2-22.922 51.2-51.2v-102.4c0-28.278-22.922-51.2-51.2-51.2z" />
<glyph unicode="&#x2f;" glyph-name="uni2f" data-tags="slash" horiz-adv-x="820" d="M153.606 102.388c-5.37 0-10.826 0.852-16.198 2.64-26.826 8.94-41.324 37.936-32.38 64.762l512 1536c8.938 26.826 37.93 41.328 64.762 32.38 26.826-8.94 41.324-37.936 32.38-64.762l-512-1536c-7.148-21.452-27.126-35.020-48.564-35.020z" />
<glyph unicode="&#x30;" glyph-name="uni30" data-tags="svg" horiz-adv-x="1126" d="M563.2 307.2c-169.824 0-288.698 58.116-363.418 177.664-66.438 106.3-97.382 261.344-97.382 487.936 0 226.588 30.944 381.636 97.382 487.936 74.72 119.548 193.594 177.664 363.418 177.664s288.7-58.116 363.418-177.664c66.438-106.3 97.382-261.348 97.382-487.936 0-226.592-30.944-381.636-97.382-487.936-74.716-119.548-193.594-177.664-363.418-177.664zM563.2 1536c-133.462 0-221.348-41.162-276.582-129.536-55.056-88.086-81.818-229.94-81.818-433.664s26.762-345.574 81.818-433.664c55.236-88.374 143.12-129.536 276.582-129.536s221.348 41.162 276.582 129.536c55.056 88.090 81.818 229.94 81.818 433.664s-26.762 345.578-81.818 433.664c-55.236 88.374-143.12 129.536-276.582 129.536z" />
<glyph unicode="&#x31;" glyph-name="uni31" data-tags="svg" horiz-adv-x="512" d="M358.4 307.2c-28.278 0-51.2 22.922-51.2 51.2v1105.194l-117.396-117.398c-19.996-19.994-52.412-19.994-72.41 0-19.994 19.996-19.994 52.412 0 72.41l204.8 204.8c14.64 14.64 36.662 19.024 55.798 11.098 19.132-7.924 31.606-26.596 31.606-47.302v-1228.8c0-28.278-22.922-51.2-51.2-51.2z" />
<glyph unicode="&#x32;" glyph-name="uni32" data-tags="svg" horiz-adv-x="1126" d="M972.8 307.2h-819.2c-28.276 0-51.2 22.922-51.2 51.2 0 185.372 52.044 322.3 159.104 418.608 92.442 83.156 209.268 122.656 322.25 160.858 92.7 31.34 180.26 60.948 242.262 111.556 41.030 33.492 95.584 93.834 95.584 230.58 0 91.498-22.364 152.004-70.384 190.42-55.162 44.128-149.372 65.58-288.016 65.58s-232.854-21.452-288.016-65.58c-48.020-38.416-70.384-98.922-70.384-190.42 0-28.276-22.924-51.2-51.2-51.2s-51.2 22.924-51.2 51.2c0 247.866 142.116 358.4 460.8 358.4s460.8-110.534 460.8-358.4c0-135.36-43.58-236.732-133.236-309.91-76.378-62.34-176.954-96.342-274.212-129.232-103.152-34.874-209.814-70.938-286.564-139.978-75.788-68.176-115.648-161.542-123.668-291.28h766.476c28.278 0 51.2-22.922 51.2-51.2s-22.922-51.2-51.2-51.2z" />
<glyph unicode="&#x33;" glyph-name="uni33" data-tags="svg" horiz-adv-x="1126" d="M855.766 972.8c114.788 54.896 168.234 155.228 168.234 307.2 0 247.866-142.116 358.4-460.8 358.4-152.358 0-262.4-24.998-336.42-76.416-56.676-39.372-94.332-95.686-111.93-167.38-6.74-27.462 10.060-55.19 37.524-61.93 27.466-6.74 55.19 10.060 61.93 37.524 11.796 48.058 34.324 82.276 70.9 107.686 56.292 39.108 147.226 58.116 277.996 58.116 138.644 0 232.854-21.452 288.016-65.58 30.214-24.172 70.384-70.212 70.384-190.42s-40.17-166.246-70.384-190.42c-55.162-44.128-149.372-65.58-288.016-65.58h-102.4c-28.276 0-51.2-22.924-51.2-51.2s22.924-51.2 51.2-51.2h102.4c138.644 0 232.854-21.452 288.016-65.58 30.214-24.172 70.384-70.212 70.384-190.42s-40.17-166.246-70.384-190.42c-55.162-44.128-149.372-65.58-288.016-65.58-271.59 0-328.774 83.808-348.892 165.792-6.74 27.462-34.46 44.266-61.93 37.524-27.462-6.74-44.262-34.468-37.524-61.93 20.644-84.112 68.916-146.886 143.482-186.582 72.308-38.492 172.028-57.204 304.864-57.204 318.684 0 460.8 110.534 460.8 358.4 0 151.972-53.446 252.304-168.234 307.2z" />
<glyph unicode="&#x34;" glyph-name="uni34" data-tags="svg" horiz-adv-x="1229" d="M870.4 307.2c-28.278 0-51.2 22.922-51.2 51.2v256h-665.6c-19.556 0-37.402 11.136-45.994 28.708-8.592 17.564-6.426 38.49 5.58 53.93l716.8 921.6c13.43 17.268 36.342 24.096 57.030 16.996s34.582-26.56 34.582-48.432v-870.4h153.6c28.278 0 51.2-22.922 51.2-51.2s-22.922-51.2-51.2-51.2h-153.6v-256c0-28.278-22.922-51.2-51.2-51.2zM258.284 716.8h560.916v721.174l-560.916-721.174z" />
<glyph unicode="&#x35;" glyph-name="uni35" data-tags="svg" horiz-adv-x="1126" d="M563.2 307.2c-246.508 0-385.54 75.35-437.542 237.132-8.652 26.922 6.154 55.76 33.076 64.412 26.922 8.662 55.756-6.156 64.412-33.076 18.154-56.484 49.788-95.148 99.548-121.69 55.99-29.866 134.66-44.38 240.506-44.38 137.148 0 230.394 24.804 285.066 75.83 50.032 46.698 73.334 120.218 73.334 231.37s-23.302 184.676-73.334 231.37c-54.672 51.028-147.916 75.83-285.066 75.83h-307.2c-14.468 0-28.256 6.118-37.962 16.844s-14.422 25.060-12.982 39.452l51.2 512c2.614 26.17 24.64 46.102 50.944 46.102h665.6c28.278 0 51.2-22.924 51.2-51.2s-22.922-51.2-51.2-51.2h-619.264l-40.96-409.6h250.624c318.684 0 460.8-126.326 460.8-409.6s-142.116-409.6-460.8-409.6z" />
<glyph unicode="&#x36;" glyph-name="uni36<div><br></div>" data-tags="svg" horiz-adv-x="1126" d="M563.2 1126.4c-165.466 0-283.312-34.074-358.4-106.47v208.87c0 111.152 23.302 184.672 73.334 231.37 54.672 51.028 147.916 75.83 285.066 75.83 106.614 0 185.686-14.732 241.734-45.036 49.808-26.934 81.324-66.256 99.174-123.74 8.384-27.002 37.062-42.102 64.080-33.716 27.002 8.388 42.096 37.076 33.712 64.080-51.014 164.292-190.412 240.812-438.7 240.812-318.684 0-460.8-126.326-460.8-409.6v-512c0-283.274 142.116-409.6 460.8-409.6s460.8 126.326 460.8 409.6-142.116 409.6-460.8 409.6zM848.266 485.43c-54.672-51.028-147.916-75.83-285.066-75.83s-230.394 24.804-285.066 75.83c-50.032 46.698-73.334 120.218-73.334 231.37s23.302 184.676 73.334 231.37c54.668 51.028 147.916 75.83 285.066 75.83s230.394-24.804 285.066-75.83c50.032-46.694 73.334-120.218 73.334-231.37s-23.302-184.672-73.334-231.37z" />
<glyph unicode="&#x37;" glyph-name="uni37" data-tags="svg" horiz-adv-x="1126" d="M358.362 307.188c-7.696 0-15.508 1.744-22.858 5.418-25.292 12.644-35.542 43.398-22.9 68.692l577.35 1154.704h-736.356c-28.276 0-51.2 22.924-51.2 51.2s22.924 51.2 51.2 51.2h819.2c17.744 0 34.224-9.188 43.552-24.282s10.18-33.942 2.24-49.814l-614.4-1228.8c-8.966-17.942-27.052-28.314-45.83-28.316z" />
<glyph unicode="&#x38;" glyph-name="uni38" data-tags="svg" horiz-adv-x="1126" d="M855.766 972.8c114.788 54.896 168.234 155.228 168.234 307.2 0 247.866-142.116 358.4-460.8 358.4s-460.8-110.534-460.8-358.4c0-151.972 53.446-252.304 168.234-307.2-114.788-54.896-168.234-155.228-168.234-307.2 0-247.866 142.116-358.4 460.8-358.4s460.8 110.534 460.8 358.4c0 151.972-53.446 252.304-168.234 307.2zM275.184 1089.58c-30.214 24.172-70.384 70.212-70.384 190.42s40.17 166.246 70.384 190.42c55.162 44.128 149.372 65.58 288.016 65.58s232.854-21.452 288.016-65.58c30.214-24.172 70.384-70.212 70.384-190.42s-40.17-166.246-70.384-190.42c-55.162-44.128-149.372-65.58-288.016-65.58s-232.854 21.452-288.016 65.58zM851.216 475.18c-55.162-44.128-149.372-65.58-288.016-65.58s-232.854 21.452-288.016 65.58c-30.214 24.172-70.384 70.212-70.384 190.42s40.17 166.246 70.384 190.42c55.162 44.128 149.372 65.58 288.016 65.58s232.854-21.452 288.016-65.58c30.214-24.172 70.384-70.212 70.384-190.42s-40.17-166.246-70.384-190.42z" />
<glyph unicode="&#x39;" glyph-name="uni39" data-tags="svg" horiz-adv-x="1126" d="M563.2 1638.4c-318.684 0-460.8-126.326-460.8-409.6s142.116-409.6 460.8-409.6c165.466 0 283.312 34.074 358.4 106.47v-208.87c0-111.152-23.302-184.672-73.334-231.37-54.672-51.028-147.916-75.83-285.066-75.83-106.614 0-185.686 14.732-241.734 45.036-49.808 26.934-81.324 66.252-99.178 123.744-8.388 27.002-37.076 42.090-64.080 33.712-27.004-8.388-42.1-37.076-33.712-64.080 51.018-164.294 190.42-240.812 438.704-240.812 318.684 0 460.8 126.326 460.8 409.6v512c0 283.274-142.116 409.6-460.8 409.6zM848.266 997.43c-54.672-51.028-147.916-75.83-285.066-75.83s-230.396 24.804-285.066 75.83c-50.032 46.698-73.334 120.214-73.334 231.37s23.302 184.672 73.334 231.37c54.668 51.028 147.916 75.83 285.066 75.83s230.394-24.804 285.066-75.83c50.032-46.698 73.334-120.214 73.334-231.37s-23.302-184.672-73.334-231.37z" />
<glyph unicode="&#x3a;" glyph-name="uni3a" data-tags="colon" horiz-adv-x="410" d="M153.6 1024c-28.276 0-51.2 22.922-51.2 51.2v102.4c0 28.278 22.924 51.2 51.2 51.2 28.278 0 51.2-22.922 51.2-51.2v-102.4c0-28.278-22.922-51.2-51.2-51.2zM153.6 307.2c-28.276 0-51.2 22.922-51.2 51.2v102.4c0 28.278 22.924 51.2 51.2 51.2 28.278 0 51.2-22.922 51.2-51.2v-102.4c0-28.278-22.922-51.2-51.2-51.2z" />
<glyph unicode="&#x3b;" glyph-name="uni3b" data-tags="semi-colon" horiz-adv-x="410" d="M307.2 460.8c0 28.278-22.922 51.2-51.2 51.2h-102.4c-28.276 0-51.2-22.922-51.2-51.2s22.924-51.2 51.2-51.2h48.816c-13.718-144.544-82.074-216.752-85.296-220.074l0.26 0.26c-9.254-9.268-14.98-22.058-14.98-36.186 0-28.278 22.924-51.2 51.2-51.2 14.15 0 26.956 5.74 36.224 15.018 4.988 4.996 117.376 120.148 117.376 343.382zM256 1024c-28.276 0-51.2 22.922-51.2 51.2v102.4c0 28.278 22.924 51.2 51.2 51.2 28.278 0 51.2-22.922 51.2-51.2v-102.4c0-28.278-22.922-51.2-51.2-51.2z" />
<glyph unicode="&#x3c;" glyph-name="uni3c" data-tags="<" horiz-adv-x="1126" d="M972.758 409.588c-7.692 0-15.508 1.744-22.858 5.418l-819.2 409.6c-17.344 8.672-28.3 26.4-28.3 45.796s10.956 37.124 28.304 45.796l819.2 409.6c25.3 12.64 56.052 2.39 68.692-22.9 12.646-25.29 2.394-56.044-22.896-68.692l-727.612-363.804 727.61-363.804c25.29-12.644 35.542-43.398 22.896-68.692-8.966-17.942-27.052-28.314-45.834-28.316z" />
<glyph unicode="&#x3d;" glyph-name="uni3d" data-tags="=" horiz-adv-x="1126" d="M972.8 614.4h-819.2c-28.276 0-51.2 22.922-51.2 51.2s22.924 51.2 51.2 51.2h819.2c28.278 0 51.2-22.922 51.2-51.2s-22.922-51.2-51.2-51.2zM972.8 1024h-819.2c-28.276 0-51.2 22.924-51.2 51.2s22.924 51.2 51.2 51.2h819.2c28.278 0 51.2-22.924 51.2-51.2s-22.922-51.2-51.2-51.2z" />
<glyph unicode="&#x3e;" glyph-name="uni3e" data-tags=">" horiz-adv-x="1126" d="M153.642 409.588c-18.784 0-36.864 10.372-45.836 28.316-12.646 25.29-2.394 56.048 22.9 68.692l727.61 363.804-727.61 363.804c-25.292 12.646-35.542 43.402-22.9 68.692 12.646 25.29 43.402 35.546 68.692 22.9l819.2-409.6c17.348-8.672 28.304-26.4 28.304-45.796s-10.956-37.124-28.304-45.796l-819.2-409.6c-7.348-3.674-15.162-5.414-22.854-5.418z" />
<glyph unicode="&#x3f;" glyph-name="uni3f" data-tags="?" horiz-adv-x="1024" d="M460.8 614.4c-28.276 0-51.2 22.922-51.2 51.2v204.8c0 28.278 22.924 51.2 51.2 51.2h51.2c116.522 0 192.468 21.67 238.998 68.202 46.532 46.534 68.202 122.476 68.202 238.998s-21.67 192.464-68.202 238.998c-46.532 46.532-122.476 68.202-238.998 68.202-107.764 0-182.804-19.404-229.408-59.328-46.14-39.526-70.412-103.020-76.388-199.824-1.74-28.224-26.012-49.654-54.256-47.948-28.224 1.74-49.69 26.032-47.948 54.256 7.686 124.588 44.314 213.328 111.978 271.286 66.868 57.28 160.932 83.958 296.022 83.958 145.46 0 244.41-31.204 311.402-98.198 66.996-66.992 98.198-165.942 98.198-311.402s-31.204-244.41-98.198-311.402c-66.992-66.996-165.942-98.198-311.402-98.198v-153.6c0-28.278-22.924-51.2-51.2-51.2zM460.8 307.2c-28.276 0-51.2 22.922-51.2 51.2v102.4c0 28.278 22.924 51.2 51.2 51.2s51.2-22.922 51.2-51.2v-102.4c0-28.278-22.924-51.2-51.2-51.2z" />
<glyph unicode="&#x40;" glyph-name="uni40" data-tags="@" horiz-adv-x="1740" d="M1437.802 1335.402c-133.104 133.108-324.004 200.598-567.402 200.598-243.396 0-434.298-67.492-567.402-200.598-133.108-133.104-200.598-324.006-200.598-567.402 0-243.398 67.492-434.298 200.598-567.402 133.104-133.108 324.006-200.598 567.402-200.598 230.474 0 414.316 60.762 546.41 180.598 20.944 19.002 22.518 51.382 3.524 72.326-19.002 20.944-51.386 22.518-72.324 3.52-112.672-102.22-273.364-154.044-477.61-154.044-215.252 0-381.792 57.402-494.998 170.602-113.2 113.206-170.602 279.748-170.602 494.998s57.402 381.792 170.602 494.998c113.206 113.2 279.748 170.602 494.998 170.602s381.792-57.402 494.998-170.602c113.2-113.206 170.602-279.748 170.602-494.998v-102.4c0-84.698-68.902-153.6-153.6-153.6s-153.6 68.902-153.6 153.6v409.6c0 28.276-22.922 51.2-51.2 51.2s-51.2-22.924-51.2-51.2v-42.912c-63.484 61.642-151.58 94.112-256 94.112-111.204 0-203.898-36.822-268.060-106.49-59.1-64.172-90.34-151.28-90.34-251.91s31.238-187.738 90.34-251.91c64.164-69.664 156.858-106.49 268.060-106.49s203.898 36.826 268.064 106.49c7.27 7.894 14.116 16.14 20.534 24.71 43.862-78.202 127.536-131.2 223.402-131.2 141.158 0 256 114.842 256 256v102.4c0 243.396-67.492 434.298-200.598 567.402zM870.4 512c-81.828 0-148.476 25.402-192.74 73.462-41.386 44.934-63.26 108.058-63.26 182.538s21.876 137.604 63.26 182.538c44.262 48.060 110.912 73.462 192.74 73.462s148.476-25.402 192.736-73.462c41.388-44.934 63.264-108.058 63.264-182.538s-21.876-137.604-63.264-182.538c-44.26-48.060-110.908-73.462-192.736-73.462z" />
<glyph unicode="&#x41;" glyph-name="uni41" data-tags="A" horiz-adv-x="1332" d="M1224.864 378.092l-512 1228.8c-7.952 19.078-26.596 31.508-47.264 31.508s-39.312-12.428-47.264-31.508l-512-1228.8c-10.876-26.102 1.466-56.076 27.568-66.956 26.1-10.874 56.080 1.468 66.954 27.568l157.542 378.096h614.4l157.536-378.092c8.196-19.664 27.232-31.52 47.284-31.52 6.564 0 13.236 1.268 19.67 3.948 26.106 10.88 38.448 40.854 27.574 66.956zM401.066 819.2l264.534 634.88 264.532-634.88h-529.066z" />
<glyph unicode="&#x42;" glyph-name="uni42" data-tags="B" horiz-adv-x="1228" d="M614.4 307.2h-460.8c-28.276 0-51.2 22.922-51.2 51.2v1228.8c0 28.276 22.924 51.2 51.2 51.2h409.6c318.684 0 460.8-110.534 460.8-358.4 0-132.618-40.672-225.914-127.312-284.006 34.262-9.524 63.51-21.632 89.11-36.566 94.612-55.194 140.602-151.302 140.602-293.828s-45.99-238.634-140.602-293.824c-77.594-45.264-188.666-64.576-371.398-64.576zM204.8 409.6h409.6c163.328 0 258.97 15.14 319.802 50.624 41.808 24.388 89.798 69.772 89.798 205.376s-47.99 180.988-89.798 205.376c-60.832 35.484-156.474 50.624-319.802 50.624v1.014c-16.532-0.678-33.596-1.014-51.2-1.014h-358.4v-512zM204.8 1024h358.4c138.644 0 232.854 21.452 288.016 65.58 48.020 38.416 70.384 98.922 70.384 190.42s-22.364 152.004-70.384 190.42c-55.162 44.128-149.372 65.58-288.016 65.58h-358.4v-512z" />
<glyph unicode="&#x43;" glyph-name="uni43" data-tags="C" horiz-adv-x="1332" d="M768 307.2c-217.916 0-385.132 56.726-497.004 168.598-111.872 111.868-168.596 279.084-168.596 497.002s56.724 385.132 168.596 497.004c111.872 111.872 279.088 168.596 497.004 168.596 183.414 0 331.402-40.252 439.846-119.642 22.816-16.704 27.772-48.74 11.068-71.556s-48.736-27.772-71.556-11.068c-90.522 66.266-218.156 99.866-379.36 99.866-189.772 0-332.624-46.634-424.596-138.604s-138.604-234.826-138.604-424.596c0-189.772 46.634-332.624 138.604-424.598 91.972-91.968 234.822-138.602 424.596-138.602 161.204 0 288.838 33.6 379.36 99.866 22.816 16.704 54.858 11.748 71.556-11.068 16.704-22.816 11.748-54.854-11.068-71.556-108.444-79.388-256.432-119.642-439.846-119.642z" />
<glyph unicode="&#x44;" glyph-name="uni44" data-tags="D" horiz-adv-x="1332" d="M563.2 307.2h-409.6c-28.276 0-51.2 22.922-51.2 51.2v1228.8c0 28.276 22.924 51.2 51.2 51.2h409.6c217.916 0 385.132-56.724 497.002-168.596 111.872-111.872 168.598-279.088 168.598-497.004s-56.726-385.132-168.598-497.002-279.084-168.598-497.002-168.598zM204.8 409.6h358.4c189.772 0 332.624 46.634 424.598 138.602 91.968 91.974 138.602 234.826 138.602 424.598 0 189.77-46.634 332.624-138.602 424.596-91.974 91.972-234.826 138.604-424.598 138.604h-358.4v-1126.4z" />
<glyph unicode="&#x45;" glyph-name="uni45" data-tags="E" horiz-adv-x="1228" d="M1075.2 409.6h-870.4v512h768c28.278 0 51.2 22.924 51.2 51.2s-22.922 51.2-51.2 51.2h-768v512h870.4c28.278 0 51.2 22.924 51.2 51.2s-22.922 51.2-51.2 51.2h-921.6c-28.276 0-51.2-22.924-51.2-51.2v-1228.8c0-28.278 22.924-51.2 51.2-51.2h921.6c28.278 0 51.2 22.922 51.2 51.2s-22.922 51.2-51.2 51.2z" />
<glyph unicode="&#x46;" glyph-name="uni46" data-tags="F" horiz-adv-x="1228" d="M1075.2 1638.4h-921.6c-28.276 0-51.2-22.924-51.2-51.2v-1228.8c0-28.278 22.924-51.2 51.2-51.2s51.2 22.922 51.2 51.2v563.2h768c28.278 0 51.2 22.924 51.2 51.2s-22.922 51.2-51.2 51.2h-768v512h870.4c28.278 0 51.2 22.924 51.2 51.2s-22.922 51.2-51.2 51.2z" />
<glyph unicode="&#x47;" glyph-name="uni47" data-tags="G" horiz-adv-x="1332" d="M768 307.2c-217.916 0-385.132 56.726-497.002 168.598-111.876 111.868-168.598 279.084-168.598 497.002s56.724 385.132 168.598 497.004c111.868 111.872 279.084 168.596 497.002 168.596 183.412 0 331.398-40.252 439.846-119.638 22.816-16.704 27.772-48.74 11.068-71.558-16.704-22.816-48.74-27.77-71.556-11.068-90.522 66.266-218.16 99.866-379.36 99.866-189.77 0-332.624-46.634-424.598-138.604-91.968-91.972-138.602-234.826-138.602-424.596 0-189.772 46.634-332.624 138.602-424.598 91.974-91.968 234.828-138.602 424.598-138.602 149.132 0 269.536 28.758 358.404 85.532l-0.004 426.468h-153.6c-28.278 0-51.2 22.924-51.2 51.2s22.922 51.2 51.2 51.2h204.8c28.278 0 51.2-22.924 51.2-51.2l0.004-504.646c0-16.326-7.786-31.668-20.956-41.312-108.444-79.388-256.432-119.642-439.846-119.642z" />
<glyph unicode="&#x48;" glyph-name="uni48" data-tags="H" horiz-adv-x="1228" d="M1075.2 1638.4c-28.278 0-51.2-22.924-51.2-51.2v-563.2h-819.2v563.2c0 28.276-22.924 51.2-51.2 51.2s-51.2-22.924-51.2-51.2v-1228.8c0-28.278 22.924-51.2 51.2-51.2s51.2 22.922 51.2 51.2v563.2h819.2v-563.2c0-28.278 22.922-51.2 51.2-51.2s51.2 22.922 51.2 51.2v1228.8c0 28.276-22.922 51.2-51.2 51.2z" />
<glyph unicode="&#x49;" glyph-name="uni49" data-tags="I" horiz-adv-x="308" d="M153.6 307.2c-28.276 0-51.2 22.922-51.2 51.2v1228.8c0 28.276 22.924 51.2 51.2 51.2s51.2-22.924 51.2-51.2v-1228.8c0-28.278-22.924-51.2-51.2-51.2z" />
<glyph unicode="&#x4a;" glyph-name="uni4a" data-tags="J" horiz-adv-x="1126" d="M512 307.2c-178.4 0-298.972 37.268-379.45 117.286-20.052 19.936-20.144 52.352-0.208 72.406s52.356 20.15 72.406 0.204c60.042-59.696 157.67-87.498 307.252-87.498 230.112 0 302.89 69.226 340.582 129.536 57.28 91.648 69.018 239.644 69.018 433.664v614.4c0 28.276 22.922 51.2 51.2 51.2s51.2-22.924 51.2-51.2v-614.4c0-217.686-14.15-375.244-84.582-487.936-75.754-121.21-211.572-177.664-427.418-177.664z" />
<glyph unicode="&#x4b;" glyph-name="uni4b" data-tags="K" horiz-adv-x="1126" d="M1004.784 398.38l-718.026 574.42 718.026 574.42c22.080 17.668 25.66 49.884 7.996 71.964-17.668 22.084-49.884 25.652-71.964 7.996l-736.016-588.812v548.832c0 28.276-22.924 51.2-51.2 51.2s-51.2-22.924-51.2-51.2v-1228.8c0-28.278 22.924-51.2 51.2-51.2s51.2 22.922 51.2 51.2v548.832l736.016-588.812c9.44-7.552 20.732-11.222 31.952-11.222 15.018 0 29.9 6.58 40.012 19.22 17.664 22.080 14.086 54.3-7.996 71.964z" />
<glyph unicode="&#x4c;" glyph-name="uni4c" data-tags="L" horiz-adv-x="1228" d="M1075.2 307.2h-921.6c-28.276 0-51.2 22.922-51.2 51.2v1228.8c0 28.276 22.924 51.2 51.2 51.2s51.2-22.924 51.2-51.2v-1177.6h870.4c28.278 0 51.2-22.922 51.2-51.2s-22.922-51.2-51.2-51.2z" />
<glyph unicode="&#x4d;" glyph-name="uni4d" data-tags="M" horiz-adv-x="1740" d="M1587.136 307.19c-24.576 0-46.266 17.748-50.442 42.79l-175.526 1053.152-443.504-1064.422c-7.952-19.082-26.596-31.51-47.264-31.51s-39.312 12.428-47.264 31.51l-443.508 1064.422-175.526-1053.152c-4.646-27.892-31.004-46.732-58.922-42.084-27.892 4.646-46.732 31.028-42.086 58.922l204.8 1228.8c3.754 22.518 21.958 39.83 44.636 42.444 22.676 2.612 44.346-10.1 53.126-31.172l464.742-1115.372 464.736 1115.372c8.78 21.076 30.458 33.792 53.13 31.172 22.678-2.614 40.884-19.93 44.636-42.444l204.8-1228.8c4.65-27.894-14.196-54.276-42.084-58.922-2.852-0.476-5.686-0.704-8.484-0.708z" />
<glyph unicode="&#x4e;" glyph-name="uni4e" data-tags="N" horiz-adv-x="1228" d="M1075.206 307.196c-15.808 0-31.11 7.34-40.966 20.484l-829.44 1105.92v-1075.2c0-28.278-22.924-51.2-51.2-51.2s-51.2 22.922-51.2 51.2v1228.8c0 22.038 14.102 41.604 35.008 48.572 20.906 6.972 43.93-0.22 57.148-17.852l829.444-1105.92v1075.2c0 28.276 22.922 51.2 51.2 51.2s51.2-22.924 51.2-51.2v-1228.8c0-22.038-14.102-41.604-35.008-48.572-5.324-1.772-10.788-2.63-16.186-2.63z" />
<glyph unicode="&#x4f;" glyph-name="uni4f" data-tags="O" horiz-adv-x="1434" d="M716.8 307.2c-195.204 0-347.734 57.124-453.354 169.782-106.86 113.988-161.046 280.806-161.046 495.818s54.186 381.83 161.046 495.818c105.62 112.66 258.15 169.782 453.354 169.782s347.734-57.124 453.354-169.782c106.86-113.988 161.046-280.806 161.046-495.818s-54.186-381.83-161.046-495.818c-105.62-112.66-258.15-169.782-453.354-169.782zM716.8 1536c-165.77 0-293.162-46.234-378.646-137.418-88.486-94.384-133.354-237.638-133.354-425.782s44.868-331.398 133.354-425.782c85.484-91.184 212.876-137.418 378.646-137.418s293.162 46.234 378.646 137.418c88.486 94.384 133.354 237.638 133.354 425.782s-44.868 331.398-133.354 425.782c-85.484 91.184-212.876 137.418-378.646 137.418z" />
<glyph unicode="&#x50;" glyph-name="uni50" data-tags="P" horiz-adv-x="1126" d="M153.6 307.2c-28.276 0-51.2 22.922-51.2 51.2v1228.8c0 28.276 22.924 51.2 51.2 51.2h409.6c318.684 0 460.8-110.534 460.8-358.4s-142.116-358.4-460.8-358.4h-358.4v-563.2c0-28.278-22.924-51.2-51.2-51.2zM204.8 1024h358.4c138.644 0 232.854 21.452 288.016 65.58 48.020 38.416 70.384 98.922 70.384 190.42s-22.364 152.004-70.384 190.42c-55.162 44.128-149.372 65.58-288.016 65.58h-358.4v-512z" />
<glyph unicode="&#x51;" glyph-name="uni51" data-tags="Q" horiz-adv-x="1434" d="M1170.154 1468.618c-105.62 112.66-258.15 169.782-453.354 169.782s-347.734-57.124-453.354-169.782c-106.86-113.988-161.046-280.806-161.046-495.818s54.186-381.83 161.046-495.818c96.764-103.212 232.928-159.776 405.184-168.54 7.436-60.704 28.748-114.068 63.754-159.076 35.11-45.136 83.37-81.078 143.446-106.826 98.132-42.058 195.284-42.54 199.37-42.54 28.278 0 51.2 22.922 51.2 51.2s-22.922 51.2-51.2 51.2c-0.79 0-80.006 0.39-159.030 34.26-83.37 35.732-130.884 92.314-144.228 172.138 168.97 9.924 302.756 66.362 398.212 168.186 106.86 113.988 161.046 280.806 161.046 495.818s-54.186 381.83-161.046 495.818zM1095.446 547.018c-85.484-91.184-212.876-137.418-378.646-137.418-165.766 0-293.162 46.234-378.646 137.418-88.486 94.384-133.354 237.638-133.354 425.782s44.868 331.398 133.354 425.782c85.484 91.184 212.88 137.418 378.646 137.418 165.77 0 293.162-46.234 378.646-137.418 88.486-94.384 133.354-237.638 133.354-425.782s-44.868-331.398-133.354-425.782z" />
<glyph unicode="&#x52;" glyph-name="uni52" data-tags="R" horiz-adv-x="1126" d="M1015.398 386.8l-358.932 538.4c253.276 20.764 367.532 132.582 367.532 354.8 0 247.866-142.116 358.4-460.8 358.4h-409.6c-28.276 0-51.2-22.924-51.2-51.2v-1228.8c0-28.278 22.924-51.2 51.2-51.2s51.2 22.922 51.2 51.2v563.2h330.998l394.4-591.6c9.866-14.8 26.1-22.806 42.646-22.806 9.76 0 19.626 2.788 28.352 8.604 23.532 15.686 29.892 47.472 14.202 71.002zM204.8 1536h358.4c138.644 0 232.854-21.452 288.016-65.58 48.020-38.416 70.384-98.922 70.384-190.42s-22.364-152.004-70.384-190.42c-55.162-44.128-149.372-65.58-288.016-65.58h-358.4v512z" />
<glyph unicode="&#x53;" glyph-name="uni53" data-tags="S" horiz-adv-x="1126" d="M563.2 307.2c-268.416 0-431.2 106.468-438 111.002-23.53 15.684-29.884 47.472-14.202 71.002 15.66 23.492 47.366 29.866 70.88 14.282 2.692-1.75 146.774-93.884 381.322-93.884 141.148 0 242.468 33.056 301.142 98.25 49.82 55.354 57.258 122.596 57.258 157.75 0 153.732-140.092 199.846-370.816 257.53-104.166 26.042-211.878 52.97-294.982 101.446-101.788 59.376-153.402 145.312-153.402 255.424 0 49.83 10.854 145.484 83.542 226.252 78.922 87.686 205.846 132.148 377.258 132.148 268.416 0 431.204-106.468 438-110.998 23.53-15.686 29.888-47.476 14.202-71.002-15.686-23.53-47.476-29.884-71.002-14.202-1.28 0.842-145.604 93.802-381.2 93.802-141.148 0-242.468-33.056-301.142-98.252-49.818-55.35-57.258-122.592-57.258-157.748 0-153.732 140.092-199.846 370.816-257.53 104.166-26.042 211.878-52.97 294.98-101.446 101.792-59.376 153.404-145.316 153.404-255.424 0-49.83-10.854-145.484-83.542-226.25-78.922-87.686-205.85-132.15-377.258-132.15z" />
<glyph unicode="&#x54;" glyph-name="uni54" data-tags="T" horiz-adv-x="1126" d="M972.8 1638.4h-819.2c-28.276 0-51.2-22.924-51.2-51.2s22.924-51.2 51.2-51.2h358.4v-1177.6c0-28.278 22.924-51.2 51.2-51.2s51.2 22.922 51.2 51.2v1177.6h358.4c28.278 0 51.2 22.924 51.2 51.2s-22.922 51.2-51.2 51.2z" />
<glyph unicode="&#x55;" glyph-name="uni55" data-tags="U" horiz-adv-x="1228" d="M614.4 307.2c-215.846 0-351.66 56.454-427.418 177.664-70.432 112.692-84.582 270.25-84.582 487.936v614.4c0 28.276 22.924 51.2 51.2 51.2s51.2-22.924 51.2-51.2v-614.4c0-194.020 11.738-342.016 69.018-433.664 71.756-114.81 219.708-129.536 340.582-129.536 230.112 0 302.886 69.226 340.582 129.536 57.28 91.648 69.018 239.644 69.018 433.664v614.4c0 28.276 22.922 51.2 51.2 51.2s51.2-22.924 51.2-51.2v-614.4c0-217.686-14.15-375.244-84.582-487.936-75.754-121.21-211.572-177.664-427.418-177.664z" />
<glyph unicode="&#x56;" glyph-name="uni56" data-tags="V" horiz-adv-x="1332" d="M665.6 307.2c-20.668 0-39.312 12.428-47.264 31.508l-512 1228.8c-10.876 26.102 1.466 56.076 27.568 66.954 26.1 10.874 56.076-1.466 66.954-27.568l464.742-1115.372 464.736 1115.372c10.874 26.1 40.832 38.448 66.956 27.568 26.1-10.874 38.444-40.852 27.568-66.954l-512-1228.8c-7.948-19.078-26.592-31.508-47.26-31.508z" />
<glyph unicode="&#x57;" glyph-name="uni57" data-tags="W" horiz-adv-x="1740" d="M1279.984 307.2c-21.956 0-41.568 14.042-48.556 35.008l-361.028 1083.084-361.028-1083.084c-7.196-21.596-27.856-35.866-50.534-34.972-22.746 0.874-42.186 16.66-47.708 38.742l-307.2 1228.8c-6.858 27.43 9.82 55.228 37.254 62.090 27.434 6.852 55.232-9.82 62.090-37.254l264.556-1058.228 353.996 1062.006c6.97 20.906 26.534 35.008 48.572 35.008s41.604-14.102 48.572-35.008l354-1062 264.556 1058.228c6.86 27.43 34.656 44.118 62.090 37.254 27.43-6.86 44.108-34.66 37.254-62.090l-307.2-1228.8c-5.524-22.084-24.96-37.868-47.706-38.742-0.666-0.028-1.328-0.042-1.984-0.042z" />
<glyph unicode="&#x58;" glyph-name="uni58" data-tags="X" horiz-adv-x="1228" d="M678.4 972.8l437.76 583.68c16.966 22.62 12.38 54.714-10.24 71.68-22.618 16.97-54.716 12.384-71.676-10.24l-419.844-559.788-419.84 559.788c-16.964 22.624-49.060 27.206-71.68 10.24s-27.206-49.060-10.24-71.68l437.76-583.68-437.76-583.68c-16.966-22.62-12.384-54.714 10.24-71.676 9.21-6.908 19.99-10.244 30.682-10.244 15.564 0 30.94 7.072 40.998 20.484l419.84 559.786 419.84-559.788c10.060-13.412 25.43-20.484 40.998-20.484 10.688 0 21.468 3.338 30.678 10.244 22.62 16.966 27.206 49.056 10.24 71.676l-437.756 583.684z" />
<glyph unicode="&#x59;" glyph-name="uni59" data-tags="Y" horiz-adv-x="1126" d="M998.202 1631.654c-24.556 14.028-55.828 5.5-69.856-19.052l-365.146-639.002-365.146 639.002c-14.028 24.55-45.302 33.076-69.856 19.052-24.55-14.028-33.082-45.306-19.052-69.856l402.854-704.998v-498.4c0-28.278 22.924-51.2 51.2-51.2s51.2 22.922 51.2 51.2v498.404l402.854 704.996c14.028 24.55 5.498 55.828-19.052 69.856z" />
<glyph unicode="&#x5a;" glyph-name="uni5a" data-tags="Z" horiz-adv-x="1228" d="M1075.2 307.2h-921.6c-19.396 0-37.124 10.956-45.796 28.304-8.672 17.344-6.8 38.102 4.836 53.616l860.16 1146.88h-819.2c-28.276 0-51.2 22.924-51.2 51.2s22.924 51.2 51.2 51.2h921.6c19.396 0 37.124-10.956 45.796-28.304 8.676-17.344 6.804-38.102-4.836-53.616l-860.16-1146.88h819.2c28.278 0 51.2-22.922 51.2-51.2s-22.922-51.2-51.2-51.2z" />
<glyph unicode="&#x5b;" glyph-name="uni5b" data-tags="[" horiz-adv-x="614" d="M460.8 0h-307.2c-28.276 0-51.2 22.922-51.2 51.2v1740.8c0 28.276 22.924 51.2 51.2 51.2h307.2c28.278 0 51.2-22.924 51.2-51.2s-22.922-51.2-51.2-51.2h-256v-1638.4h256c28.278 0 51.2-22.922 51.2-51.2s-22.922-51.2-51.2-51.2z" />
<glyph unicode="&#x5c;" glyph-name="uni5c" data-tags="backslash" horiz-adv-x="820" d="M665.594 102.388c5.37 0 10.826 0.852 16.198 2.64 26.828 8.94 41.322 37.936 32.38 64.762l-512 1536c-8.938 26.826-37.93 41.328-64.762 32.38-26.826-8.94-41.324-37.936-32.38-64.762l512-1536c7.148-21.452 27.126-35.020 48.564-35.020z" />
<glyph unicode="&#x5d;" glyph-name="uni5d" data-tags="]" horiz-adv-x="614" d="M153.6 0h307.2c28.276 0 51.2 22.922 51.2 51.2v1740.8c0 28.276-22.924 51.2-51.2 51.2h-307.2c-28.278 0-51.2-22.924-51.2-51.2s22.922-51.2 51.2-51.2h256v-1638.4h-256c-28.278 0-51.2-22.922-51.2-51.2s22.922-51.2 51.2-51.2z" />
<glyph unicode="&#x5e;" glyph-name="uni5e" data-tags="^" horiz-adv-x="922" d="M768.048 1023.994c-17.396 0-34.352 8.864-43.952 24.868l-263.296 438.822-263.296-438.826c-14.548-24.25-45.994-32.112-70.246-17.562-24.246 14.548-32.108 46-17.562 70.246l307.2 512c9.254 15.42 25.92 24.858 43.904 24.858s34.65-9.436 43.904-24.858l307.2-512c14.548-24.246 6.684-55.696-17.562-70.246-8.246-4.948-17.332-7.302-26.294-7.302z" />
<glyph unicode="&#x5f;" glyph-name="uni5f" data-tags="underscore" horiz-adv-x="1024" d="M1024-51.2c0-28.276-22.922-51.2-51.2-51.2h-921.6c-28.278 0-51.2 22.924-51.2 51.2 0 28.278 22.922 51.2 51.2 51.2h921.6c28.278 0 51.2-22.922 51.2-51.2z" />
<glyph unicode="&#x60;" glyph-name="uni60" data-tags="`" horiz-adv-x="614" d="M358.448 1433.596c-16.548 0-32.78 8.004-42.646 22.804l-204.8 307.2c-15.684 23.526-9.328 55.316 14.202 71.002 23.532 15.684 55.318 9.324 71.002-14.202l204.8-307.2c15.686-23.526 9.328-55.316-14.202-71.002-8.732-5.818-18.598-8.602-28.356-8.602z" />
<glyph unicode="&#x61;" glyph-name="uni61" data-tags="a" horiz-adv-x="1024" d="M807.93 1152.976c-45.114 37.494-115.548 75.824-295.93 75.824-122.22 0-213.196-15.124-278.128-46.234-25.5-12.218-36.268-42.796-24.052-68.298 12.22-25.504 42.796-36.272 68.298-24.052 50.816 24.348 127.316 36.182 233.882 36.182 117.546 0 186.47-15.604 230.47-52.176 52.348-43.508 76.73-124.544 76.73-255.024v-36.538c-58.724 26.006-150.694 36.538-307.2 36.538-120.102 0-211.332-16.422-278.896-50.204-85.508-42.756-130.704-113.916-130.704-205.796s45.196-163.040 130.704-205.796c67.564-33.782 158.794-50.204 278.896-50.204 160.074 0 251.424 9.956 309.686 35.466 6.644-20.572 25.93-35.466 48.714-35.466 28.278 0 51.2 22.922 51.2 51.2v460.8c0 163.258-36.122 269.316-113.67 333.776zM795.84 444.864c-43.756-31.254-174.676-35.264-283.84-35.264-102.396 0-180.822 13.254-233.104 39.396-50.55 25.276-74.096 61.564-74.096 114.204s23.546 88.928 74.096 114.204c52.282 26.14 130.708 39.396 233.104 39.396 106.486 0 234.58-4.058 280.246-35.69 23.056-15.972 26.954-43.446 26.954-117.91 0-75.302-1.914-103.018-23.36-118.336z" />
<glyph unicode="&#x62;" glyph-name="uni62" data-tags="b" horiz-adv-x="1126" d="M898.442 1125.884c-76.176 69.252-185.836 102.916-335.242 102.916s-259.066-33.664-335.242-102.916c-8.124-7.386-15.836-15.148-23.158-23.286v484.602c0 28.276-22.924 51.2-51.2 51.2s-51.2-22.924-51.2-51.2v-1228.8c0-28.278 22.924-51.2 51.2-51.2s51.2 22.922 51.2 51.2v75.002c7.324-8.134 15.036-15.9 23.158-23.284 76.176-69.254 185.836-102.918 335.242-102.918s259.066 33.664 335.242 102.916c84.486 76.806 125.558 193.872 125.558 357.884s-41.072 281.076-125.558 357.884zM829.558 485.884c-56.464-51.332-143.59-76.284-266.358-76.284s-209.894 24.954-266.358 76.284c-61.936 56.304-92.042 148.582-92.042 282.116s30.106 225.812 92.042 282.116c56.464 51.332 143.59 76.284 266.358 76.284s209.894-24.954 266.358-76.284c61.936-56.304 92.042-148.582 92.042-282.116s-30.106-225.812-92.042-282.116z" />
<glyph unicode="&#x63;" glyph-name="uni63" data-tags="c" horiz-adv-x="1024" d="M563.2 307.2c-149.404 0-259.066 33.664-335.242 102.916-84.49 76.806-125.558 193.872-125.558 357.884s41.068 281.076 125.558 357.884c76.176 69.252 185.836 102.916 335.242 102.916 154.346 0 266.49-36 342.838-110.054 20.298-19.686 20.794-52.102 1.108-72.4-19.686-20.294-52.1-20.794-72.4-1.104-56.304 54.612-145.126 81.158-271.546 81.158-122.768 0-209.894-24.954-266.358-76.284-61.936-56.304-92.042-148.582-92.042-282.116s30.106-225.812 92.042-282.116c56.464-51.332 143.59-76.284 266.358-76.284 126.422 0 215.248 26.55 271.552 81.164 20.294 19.68 52.71 19.194 72.4-1.108 19.686-20.298 19.19-52.71-1.108-72.4-76.352-74.058-188.5-110.058-342.844-110.058z" />
<glyph unicode="&#x64;" glyph-name="uni64" data-tags="d" horiz-adv-x="1126" d="M972.8 1638.4c-28.278 0-51.2-22.924-51.2-51.2v-484.602c-7.322 8.134-15.036 15.9-23.158 23.286-76.176 69.252-185.836 102.916-335.242 102.916s-259.066-33.664-335.242-102.916c-84.49-76.81-125.558-193.872-125.558-357.884s41.068-281.078 125.558-357.884c76.176-69.252 185.836-102.916 335.242-102.916s259.066 33.664 335.242 102.916c8.122 7.386 15.836 15.148 23.158 23.284v-74.998c0-28.278 22.922-51.2 51.2-51.2s51.2 22.922 51.2 51.2v1228.8c0 28.276-22.922 51.2-51.2 51.2zM829.558 485.884c-56.464-51.332-143.59-76.284-266.358-76.284s-209.894 24.954-266.358 76.284c-61.936 56.304-92.042 148.582-92.042 282.116s30.106 225.812 92.042 282.116c56.464 51.332 143.59 76.284 266.358 76.284s209.894-24.954 266.358-76.284c61.936-56.304 92.042-148.582 92.042-282.116s-30.106-225.812-92.042-282.116z" />
<glyph unicode="&#x65;" glyph-name="uni65" data-tags="e" horiz-adv-x="1126" d="M563.2 307.2c-149.404 0-259.066 33.664-335.242 102.916-84.49 76.806-125.558 193.872-125.558 357.884s41.068 281.076 125.558 357.884c76.176 69.252 185.836 102.916 335.242 102.916s259.066-33.664 335.242-102.916c84.486-76.81 125.558-193.872 125.558-357.884 0-28.278-22.922-51.2-51.2-51.2h-766.394c6.982-106.294 36.752-182.112 90.432-230.916 56.468-51.332 143.594-76.284 266.362-76.284 130.38 0 220.996 28.346 277.014 86.66 19.594 20.388 52.004 21.036 72.394 1.45 20.39-19.59 21.040-52 1.45-72.394-76.356-79.478-191.124-118.116-350.858-118.116zM206.406 819.2h713.584c-6.98 106.292-36.748 182.116-90.432 230.916-56.464 51.332-143.59 76.284-266.358 76.284s-209.894-24.954-266.358-76.284c-53.684-48.8-83.452-124.624-90.436-230.916z" />
<glyph unicode="&#x66;" glyph-name="uni66" data-tags="f" horiz-adv-x="614" d="M460.8 1228.8h-256v102.4c0 70.65 11.866 123.082 35.264 155.84 31.344 43.884 82.548 48.96 118.336 48.96 37.178 0 65.798-3.204 87.508-9.798 27.044-8.224 55.652 7.052 63.868 34.108s-7.052 55.652-34.108 63.868c-31.498 9.568-69.856 14.22-117.268 14.22-90.284 0-158.134-30.9-201.664-91.84-36.564-51.19-54.336-121.632-54.336-215.36v-972.8c0-28.278 22.924-51.2 51.2-51.2s51.2 22.922 51.2 51.2v768h256c28.276 0 51.2 22.924 51.2 51.2s-22.924 51.2-51.2 51.2z" />
<glyph unicode="&#x67;" glyph-name="uni67" data-tags="g" horiz-adv-x="1126" d="M972.8 1228.8c-28.278 0-51.2-22.924-51.2-51.2v-75.002c-7.322 8.134-15.036 15.9-23.158 23.286-76.176 69.252-185.836 102.916-335.242 102.916s-259.066-33.664-335.242-102.916c-84.49-76.81-125.558-193.872-125.558-357.884s41.068-281.078 125.558-357.884c76.176-69.252 185.836-102.916 335.242-102.916s259.066 33.664 335.242 102.916c8.122 7.386 15.836 15.148 23.158 23.284v-74.998c0-144.676-23.008-232.198-74.602-283.798-51.6-51.594-139.124-74.602-283.798-74.602-134.78 0-221.808 20.79-273.884 65.428-21.466 18.396-53.788 15.914-72.196-5.552-18.404-21.472-15.916-53.796 5.552-72.198 72.682-62.294 177.706-90.076 340.528-90.076 335.91 0 460.8 124.89 460.8 460.8v819.2c0 28.276-22.922 51.2-51.2 51.2zM829.558 485.884c-56.464-51.332-143.59-76.284-266.358-76.284s-209.894 24.954-266.358 76.284c-61.936 56.304-92.042 148.582-92.042 282.116s30.106 225.812 92.042 282.116c56.464 51.332 143.59 76.284 266.358 76.284s209.894-24.954 266.358-76.284c61.936-56.304 92.042-148.582 92.042-282.116s-30.106-225.812-92.042-282.116z" />
<glyph unicode="&#x68;" glyph-name="uni68" data-tags="h" horiz-adv-x="1024" d="M804.202 1124.202c-69.402 69.408-167.716 104.598-292.202 104.598s-222.8-35.19-292.202-104.598c-5.172-5.172-10.164-10.544-14.998-16.084v479.082c0 28.276-22.924 51.2-51.2 51.2s-51.2-22.924-51.2-51.2v-1228.8c0-28.278 22.924-51.2 51.2-51.2s51.2 22.922 51.2 51.2v409.6c0 130.316 29.404 225.798 87.402 283.798 49.508 49.5 123.456 74.602 219.798 74.602s170.294-25.1 219.798-74.602c57.996-58 87.402-153.482 87.402-283.798v-409.6c0-28.278 22.922-51.2 51.2-51.2s51.2 22.922 51.2 51.2v409.6c0 158.46-39.498 278.308-117.398 356.202z" />
<glyph unicode="&#x69;" glyph-name="uni69" data-tags="i" horiz-adv-x="308" d="M153.6 307.2c-28.276 0-51.2 22.922-51.2 51.2v819.2c0 28.276 22.924 51.2 51.2 51.2 28.278 0 51.2-22.924 51.2-51.2v-819.2c0-28.278-22.922-51.2-51.2-51.2zM153.6 1433.6c-28.276 0-51.2 22.924-51.2 51.2v102.4c0 28.276 22.924 51.2 51.2 51.2 28.278 0 51.2-22.924 51.2-51.2v-102.4c0-28.276-22.922-51.2-51.2-51.2z" />
<glyph unicode="&#x6a;" glyph-name="uni6a" data-tags="j" horiz-adv-x="512" d="M51.156-101.068c-26.996 0-49.584 21.12-51.078 48.4-1.546 28.234 20.086 52.378 48.324 53.926 97.882 5.36 163.558 28.208 200.78 69.85 39.584 44.278 58.020 119.296 58.020 236.092v870.4c0 28.276 22.922 51.2 51.2 51.2s51.2-22.924 51.2-51.2v-870.4c0-143.472-26.716-240.18-84.076-304.34-57.052-63.828-143.334-96.828-271.524-103.85-0.954-0.054-1.9-0.080-2.844-0.080zM358.4 1433.6c-28.278 0-51.2 22.924-51.2 51.2v102.4c0 28.276 22.922 51.2 51.2 51.2s51.2-22.924 51.2-51.2v-102.4c0-28.276-22.922-51.2-51.2-51.2z" />
<glyph unicode="&#x6b;" glyph-name="uni6b" data-tags="k" horiz-adv-x="820" d="M328.406 768l373.396 373.398c19.996 19.994 19.996 52.412 0 72.406-19.994 19.996-52.412 19.996-72.406 0l-424.596-424.598v797.994c0 28.276-22.924 51.2-51.2 51.2s-51.2-22.924-51.2-51.2v-1228.8c0-28.278 22.924-51.2 51.2-51.2s51.2 22.922 51.2 51.2v388.394l424.598-424.598c9.996-9.996 23.098-14.996 36.202-14.996s26.204 4.998 36.202 14.998c19.996 19.994 19.996 52.412 0 72.406l-373.396 373.396z" />
<glyph unicode="&#x6c;" glyph-name="uni6c" data-tags="l" horiz-adv-x="308" d="M256.604 408.996c-0.204 0-0.4-0.028-0.604-0.032v0.636l0.604-0.006c-4.538 0.116-18.918 1.85-30.81 8.4-10.384 5.716-20.996 15.274-20.996 42.806v1126.4c0 28.276-22.924 51.2-51.2 51.2s-51.2-22.924-51.2-51.2v-1126.4c0-112.694 91.86-153.6 153.6-153.6v0.636c0.202-0.004 0.4-0.032 0.604-0.032 27.942 0 50.596 22.652 50.596 50.596s-22.652 50.596-50.596 50.596z" />
<glyph unicode="&#x6d;" glyph-name="uni6d" data-tags="m" horiz-adv-x="1740" d="M1521.002 1124.202c-69.402 69.408-167.716 104.598-292.202 104.598s-222.8-35.19-292.202-104.598c-26.54-26.54-48.614-57.962-66.198-94.108-17.58 36.148-39.658 67.568-66.198 94.108-69.402 69.408-167.716 104.598-292.202 104.598s-222.8-35.19-292.202-104.598c-5.172-5.172-10.164-10.544-14.998-16.084v69.482c0 28.276-22.924 51.2-51.2 51.2s-51.2-22.924-51.2-51.2v-819.2c0-28.278 22.924-51.2 51.2-51.2s51.2 22.922 51.2 51.2v409.6c0 130.316 29.404 225.798 87.402 283.798 49.508 49.5 123.456 74.602 219.798 74.602s170.294-25.1 219.798-74.602c57.996-58 87.402-153.482 87.402-283.798v-409.6c0-28.278 22.922-51.2 51.2-51.2s51.2 22.922 51.2 51.2v409.6c0 130.316 29.404 225.798 87.402 283.798 49.504 49.5 123.456 74.602 219.798 74.602s170.294-25.1 219.798-74.602c57.996-58 87.402-153.482 87.402-283.798v-409.6c0-28.278 22.922-51.2 51.2-51.2s51.2 22.922 51.2 51.2v409.6c0 158.46-39.498 278.308-117.398 356.202z" />
<glyph unicode="&#x6e;" glyph-name="uni6e" data-tags="n" horiz-adv-x="1024" d="M804.202 1124.202c-69.402 69.408-167.716 104.598-292.202 104.598s-222.8-35.19-292.202-104.598c-5.172-5.172-10.164-10.544-14.998-16.084v69.482c0 28.276-22.924 51.2-51.2 51.2s-51.2-22.924-51.2-51.2v-819.2c0-28.278 22.924-51.2 51.2-51.2s51.2 22.922 51.2 51.2v409.6c0 130.316 29.404 225.798 87.402 283.798 49.508 49.5 123.456 74.602 219.798 74.602s170.294-25.1 219.798-74.602c57.996-58 87.402-153.482 87.402-283.798v-409.6c0-28.278 22.922-51.2 51.2-51.2s51.2 22.922 51.2 51.2v409.6c0 158.46-39.498 278.308-117.398 356.202z" />
<glyph unicode="&#x6f;" glyph-name="uni6f" data-tags="o" horiz-adv-x="1126" d="M563.2 307.2c-149.404 0-259.066 33.664-335.242 102.916-84.49 76.806-125.558 193.872-125.558 357.884s41.068 281.076 125.558 357.884c76.176 69.252 185.836 102.916 335.242 102.916s259.066-33.664 335.242-102.916c84.486-76.81 125.558-193.872 125.558-357.884s-41.072-281.078-125.558-357.884c-76.176-69.252-185.836-102.916-335.242-102.916zM563.2 1126.4c-122.768 0-209.894-24.954-266.358-76.284-61.936-56.304-92.042-148.582-92.042-282.116s30.106-225.812 92.042-282.116c56.464-51.332 143.59-76.284 266.358-76.284s209.894 24.954 266.358 76.284c61.936 56.304 92.042 148.582 92.042 282.116s-30.106 225.812-92.042 282.116c-56.464 51.332-143.59 76.284-266.358 76.284z" />
<glyph unicode="&#x70;" glyph-name="uni70" data-tags="p" horiz-adv-x="1126" d="M898.442 1125.884c-76.176 69.252-185.836 102.916-335.242 102.916s-259.066-33.664-335.242-102.916c-8.124-7.386-15.836-15.148-23.158-23.286v75.002c0 28.276-22.924 51.2-51.2 51.2s-51.2-22.924-51.2-51.2v-1228.8c0-28.278 22.924-51.2 51.2-51.2s51.2 22.922 51.2 51.2v484.602c7.324-8.134 15.036-15.9 23.158-23.284 76.176-69.254 185.836-102.918 335.242-102.918s259.066 33.664 335.242 102.916c84.486 76.806 125.558 193.872 125.558 357.884s-41.072 281.076-125.558 357.884zM829.558 485.884c-56.464-51.332-143.59-76.284-266.358-76.284s-209.894 24.954-266.358 76.284c-61.936 56.304-92.042 148.582-92.042 282.116s30.106 225.812 92.042 282.116c56.464 51.332 143.59 76.284 266.358 76.284s209.894-24.954 266.358-76.284c61.936-56.304 92.042-148.582 92.042-282.116s-30.106-225.812-92.042-282.116z" />
<glyph unicode="&#x71;" glyph-name="uni71" data-tags="q" horiz-adv-x="1126" d="M972.8 1228.8c-28.278 0-51.2-22.924-51.2-51.2v-75.002c-7.322 8.134-15.036 15.9-23.158 23.286-76.176 69.252-185.836 102.916-335.242 102.916s-259.066-33.664-335.242-102.916c-84.49-76.81-125.558-193.872-125.558-357.884s41.068-281.078 125.558-357.884c76.176-69.252 185.836-102.916 335.242-102.916s259.066 33.664 335.242 102.916c8.122 7.386 15.836 15.148 23.158 23.284v-484.598c0-28.278 22.922-51.2 51.2-51.2s51.2 22.922 51.2 51.2v1228.8c0 28.276-22.922 51.2-51.2 51.2zM829.558 485.884c-56.464-51.332-143.59-76.284-266.358-76.284s-209.894 24.954-266.358 76.284c-61.936 56.304-92.042 148.582-92.042 282.116s30.106 225.812 92.042 282.116c56.464 51.332 143.59 76.284 266.358 76.284s209.894-24.954 266.358-76.284c61.936-56.304 92.042-148.582 92.042-282.116s-30.106-225.812-92.042-282.116z" />
<glyph unicode="&#x72;" glyph-name="uni72" data-tags="r" horiz-adv-x="614" d="M511.776 1180.058c-2.624 28.154-27.568 48.844-55.734 46.228-86.272-8.044-181.396-38.036-251.242-117.942v69.258c0 28.276-22.924 51.2-51.2 51.2s-51.2-22.924-51.2-51.2v-819.2c0-28.278 22.924-51.2 51.2-51.2s51.2 22.922 51.2 51.2v409.6c0 120.332 25.082 211.1 74.544 269.786 42.586 50.522 103.492 78.828 186.204 86.538 28.156 2.628 48.852 27.578 46.228 55.734z" />
<glyph unicode="&#x73;" glyph-name="uni73" data-tags="s" horiz-adv-x="922" d="M695.588 745.94c-63.050 32.732-144.166 52.588-222.614 71.792-161.99 39.654-268.172 71.652-268.172 151.868 0 50.896 0 156.8 256 156.8 178.746 0 267.58-84.1 271.274-87.68l-0.26 0.26c9.268-9.254 22.058-14.98 36.186-14.98 28.278 0 51.2 22.924 51.2 51.2 0 14.15-5.74 26.956-15.018 36.224-4.996 4.988-120.148 117.376-343.382 117.376-237.818 0-358.4-87.206-358.4-259.2 0-76.56 41.59-136.966 123.61-179.54 63.050-32.732 144.17-52.588 222.614-71.792 161.994-39.654 268.176-71.652 268.176-151.868 0-50.892 0-156.8-256-156.8-178.748 0-267.58 84.1-271.274 87.68l0.26-0.26c-9.264 9.254-22.058 14.98-36.186 14.98-28.276 0-51.2-22.922-51.2-51.2 0-14.15 5.74-26.96 15.020-36.224 4.996-4.996 120.15-117.376 343.38-117.376 237.814 0 358.4 87.206 358.4 259.2 0 76.56-41.588 136.966-123.612 179.54z" />
<glyph unicode="&#x74;" glyph-name="uni74" data-tags="t" horiz-adv-x="614" d="M509.776 385.29c-8.218 27.056-36.822 42.33-63.868 34.108-21.708-6.592-50.33-9.798-87.508-9.798-35.788 0-86.992 5.076-118.336 48.96-23.398 32.758-35.264 85.19-35.264 155.84v512h255.988c28.276 0 51.2 22.924 51.2 51.2s-22.924 51.2-51.2 51.2h-255.988v358.4c0 28.276-22.924 51.2-51.2 51.2s-51.2-22.924-51.2-51.2v-972.8c0-93.724 17.772-164.172 54.336-215.36 43.53-60.94 111.38-91.84 201.664-91.84 47.412 0 85.77 4.65 117.268 14.218 27.060 8.22 42.33 36.816 34.108 63.872z" />
<glyph unicode="&#x75;" glyph-name="uni75" data-tags="u" horiz-adv-x="1024" d="M870.4 1228.8c-28.278 0-51.2-22.924-51.2-51.2v-409.6c0-130.316-29.404-225.798-87.402-283.798-49.504-49.5-123.456-74.602-219.798-74.602s-170.292 25.1-219.798 74.602c-57.996 58-87.402 153.482-87.402 283.798v409.6c0 28.276-22.924 51.2-51.2 51.2s-51.2-22.924-51.2-51.2v-409.6c0-158.464 39.498-278.308 117.398-356.202 69.402-69.408 167.716-104.598 292.202-104.598s222.8 35.19 292.202 104.598c5.172 5.172 10.164 10.544 14.998 16.084v-69.482c0-28.278 22.922-51.2 51.2-51.2s51.2 22.922 51.2 51.2v819.2c0 28.276-22.922 51.2-51.2 51.2z" />
<glyph unicode="&#x76;" glyph-name="uni76" data-tags="v" horiz-adv-x="922" d="M460.8 307.2c-21.34 0-40.448 13.238-47.94 33.222l-307.2 819.2c-9.93 26.476 3.484 55.99 29.962 65.92 26.476 9.932 55.99-3.484 65.92-29.962l259.258-691.364 259.26 691.36c9.932 26.474 39.46 39.884 65.92 29.962 26.474-9.93 39.892-39.444 29.962-65.92l-307.2-819.2c-7.494-19.98-26.602-33.22-47.942-33.22z" />
<glyph unicode="&#x77;" glyph-name="uni77" data-tags="w" horiz-adv-x="1536" d="M1400.378 1225.54c-26.468 9.924-55.988-3.488-65.92-29.962l-259.258-691.36-259.308 691.344c-5.014 13.356-15.51 24.576-29.916 29.98-26.46 9.924-55.984-3.488-65.92-29.962l-259.254-691.364-259.26 691.36c-9.93 26.476-39.444 39.894-65.92 29.962-26.476-9.93-39.892-39.444-29.962-65.92l307.2-819.2c7.494-19.98 26.602-33.22 47.942-33.22s40.448 13.238 47.94 33.222l259.26 691.356 259.26-691.356c7.492-19.984 26.596-33.222 47.94-33.222s40.448 13.238 47.94 33.222l307.2 819.2c9.93 26.476-3.484 55.988-29.962 65.916z" />
<glyph unicode="&#x78;" glyph-name="uni78" data-tags="x" horiz-adv-x="922" d="M524.8 768l284.16 378.88c16.966 22.62 12.38 54.714-10.24 71.68-22.618 16.97-54.716 12.384-71.676-10.24l-266.244-354.988-266.24 354.988c-16.964 22.62-49.060 27.21-71.68 10.24-22.62-16.966-27.206-49.060-10.24-71.68l284.16-378.88-284.16-378.88c-16.966-22.618-12.384-54.714 10.24-71.676 9.21-6.908 19.99-10.244 30.682-10.244 15.564 0 30.94 7.072 40.998 20.484l266.24 354.986 266.24-354.988c10.060-13.412 25.43-20.484 40.998-20.484 10.688 0 21.468 3.338 30.678 10.244 22.62 16.966 27.206 49.060 10.24 71.676l-284.156 378.884z" />
<glyph unicode="&#x79;" glyph-name="uni79" data-tags="y" horiz-adv-x="922" d="M785.978 1225.54c-26.46 9.924-55.984-3.488-65.92-29.962l-259.258-691.36-259.26 691.36c-9.93 26.476-39.444 39.894-65.92 29.962-26.476-9.93-39.892-39.444-29.962-65.92l300.454-801.212c-110.884-295.178-140.612-358.406-252.512-358.406-28.276 0-51.2-22.922-51.2-51.2s22.924-51.2 51.2-51.2c94.438 0 157.372 33.54 210.438 112.156 46.582 69.004 85.616 173.1 144.704 330.666l307.2 819.2c9.926 26.476-3.488 55.988-29.964 65.916z" />
<glyph unicode="&#x7a;" glyph-name="uni7a" data-tags="z" horiz-adv-x="922" d="M768 307.2h-614.4c-19.396 0-37.124 10.956-45.796 28.304s-6.8 38.102 4.836 53.616l552.96 737.28h-512c-28.276 0-51.2 22.924-51.2 51.2s22.924 51.2 51.2 51.2h614.4c19.396 0 37.124-10.956 45.796-28.304 8.676-17.344 6.804-38.102-4.836-53.616l-552.96-737.28h512c28.278 0 51.2-22.922 51.2-51.2s-22.922-51.2-51.2-51.2z" />
<glyph unicode="&#x7b;" glyph-name="uni7b" data-tags="{" horiz-adv-x="716" d="M563.2 102.4h-51.2c-56.464 0-102.4 45.936-102.4 102.4v614.4c0 61.126-26.95 116.042-69.552 153.6 42.602 37.558 69.552 92.474 69.552 153.6v512c0 56.464 45.936 102.4 102.4 102.4h51.2c28.278 0 51.2 22.924 51.2 51.2s-22.922 51.2-51.2 51.2h-51.2c-112.928 0-204.8-91.872-204.8-204.8v-512c0-56.464-45.936-102.4-102.4-102.4h-51.2c-28.276 0-51.2-22.924-51.2-51.2s22.924-51.2 51.2-51.2h51.2c56.464 0 102.4-45.936 102.4-102.4v-614.4c0-112.928 91.872-204.8 204.8-204.8h51.2c28.278 0 51.2 22.922 51.2 51.2s-22.922 51.2-51.2 51.2z" />
<glyph unicode="&#x7c;" glyph-name="uni7c" data-tags="|" horiz-adv-x="512" d="M256 0c-28.276 0-51.2 22.922-51.2 51.2v1740.8c0 28.276 22.924 51.2 51.2 51.2 28.278 0 51.2-22.924 51.2-51.2v-1740.8c0-28.278-22.922-51.2-51.2-51.2z" />
<glyph unicode="&#x7d;" glyph-name="uni7d" data-tags="}" horiz-adv-x="716" d="M153.6 102.4h51.2c56.464 0 102.4 45.936 102.4 102.4v614.4c0 61.126 26.95 116.042 69.552 153.6-42.602 37.558-69.552 92.474-69.552 153.6v512c0 56.464-45.936 102.4-102.4 102.4h-51.2c-28.278 0-51.2 22.924-51.2 51.2s22.922 51.2 51.2 51.2h51.2c112.928 0 204.8-91.872 204.8-204.8v-512c0-56.464 45.936-102.4 102.4-102.4h51.2c28.276 0 51.2-22.924 51.2-51.2s-22.924-51.2-51.2-51.2h-51.2c-56.464 0-102.4-45.936-102.4-102.4v-614.4c0-112.928-91.872-204.8-204.8-204.8h-51.2c-28.278 0-51.2 22.922-51.2 51.2s22.922 51.2 51.2 51.2z" />
<glyph unicode="&#x7e;" glyph-name="uni7e" data-tags="~" horiz-adv-x="1126" d="M153.626 716.788c-4.66 0-9.388 0.64-14.090 1.98-27.19 7.77-42.934 36.108-35.164 63.296 34.028 119.098 93.734 192.564 177.456 218.358 148.202 45.664 307.446-85.104 314.154-90.692 34.022-28.118 139.796-95.904 218.656-71.434 48.41 15.024 85.062 65.008 108.934 148.566 7.77 27.188 36.112 42.934 63.296 35.164 27.19-7.77 42.932-36.106 35.164-63.296-34.028-119.098-93.734-192.564-177.456-218.358-21.952-6.762-44.166-9.658-66.070-9.66-125.974-0.006-242.368 95.59-248.084 100.348-34.020 28.118-139.796 95.908-218.656 71.434-48.41-15.024-85.062-65.008-108.934-148.566-6.428-22.484-26.928-37.142-49.206-37.142z" />
<glyph unicode="&#xa9;" glyph-name="copyright" data-tags="copyright" horiz-adv-x="1536" d="M768 307.2c-217.916 0-385.132 56.726-497.004 168.598-111.872 111.868-168.596 279.084-168.596 497.002s56.724 385.132 168.596 497.004c111.872 111.872 279.088 168.596 497.004 168.596s385.132-56.724 497.002-168.596c111.872-111.872 168.598-279.088 168.598-497.004s-56.726-385.132-168.598-497.002-279.084-168.598-497.002-168.598zM768 1536c-189.772 0-332.624-46.634-424.596-138.604s-138.604-234.826-138.604-424.596c0-189.772 46.634-332.624 138.604-424.598 91.972-91.968 234.822-138.602 424.596-138.602s332.624 46.634 424.598 138.602c91.968 91.974 138.602 234.826 138.602 424.598 0 189.77-46.634 332.624-138.602 424.596-91.974 91.972-234.826 138.604-424.598 138.604zM768 614.4c-115.994 0-205.692 30.884-266.602 91.798-60.916 60.908-91.798 150.608-91.798 266.602s30.884 205.692 91.798 266.602c60.908 60.916 150.608 91.798 266.602 91.798 162.3 0 273.334-39.702 339.45-121.38 17.792-21.98 14.396-54.218-7.584-72.010-21.974-17.796-54.214-14.4-72.010 7.58-45.43 56.124-130.432 83.408-259.856 83.408-87.85 0-153.188-20.794-194.198-61.802-41.008-41.012-61.802-106.348-61.802-194.198s20.794-153.188 61.802-194.198 106.348-61.802 194.198-61.802c129.428 0 214.428 27.284 259.86 83.412 17.788 21.984 50.028 25.38 72.010 7.584 21.978-17.792 25.376-50.032 7.584-72.010-66.116-81.68-177.148-121.386-339.452-121.386z" />
<glyph unicode="&#xe600;" glyph-name="home" data-tags="home, building, house" d="M2034.764 699.948l-904.1 999.268c-28.102 31.066-65.984 48.172-106.666 48.172-0.004 0 0 0 0 0-40.678 0-78.564-17.11-106.668-48.172l-904.1-999.268c-18.97-20.97-17.35-53.348 3.616-72.316 9.798-8.864 22.086-13.232 34.336-13.232 13.964 0 27.876 5.676 37.984 16.852l218.032 240.982v-821.034c0-84.694 68.906-153.6 153.6-153.6h1126.4c84.694 0 153.6 68.906 153.6 153.6v821.034l218.036-240.986c18.97-20.966 51.348-22.592 72.316-3.616 20.966 18.97 22.586 51.35 3.612 72.316zM1228.8 0h-409.6v460.8c0 28.23 22.97 51.2 51.2 51.2h307.2c28.23 0 51.2-22.97 51.2-51.2v-460.8zM1638.4 51.2c0-28.23-22.97-51.2-51.2-51.2h-256v460.8c0 84.698-68.902 153.6-153.6 153.6h-307.2c-84.694 0-153.6-68.902-153.6-153.6v-460.8h-256c-28.23 0-51.2 22.97-51.2 51.2v934.212l583.664 645.104c8.444 9.334 19.36 14.474 30.736 14.474s22.292-5.14 30.732-14.47l583.668-645.104v-934.214z" />
<glyph unicode="&#xe601;" glyph-name="home2" data-tags="home, building, house" d="M51.184 716.8c-12.25 0-24.538 4.368-34.332 13.236-20.97 18.97-22.588 51.348-3.616 72.316l904.096 999.264c28.106 31.062 65.99 48.172 106.668 48.172 0 0 0 0 0 0 40.678 0 78.56-17.108 106.666-48.172l904.1-999.268c18.972-20.97 17.354-53.348-3.616-72.316-20.97-18.976-53.348-17.354-72.316 3.616l-904.1 999.27c-8.444 9.334-19.36 14.47-30.732 14.47s-22.292-5.14-30.736-14.474l-904.096-999.264c-10.106-11.174-24.020-16.852-37.984-16.852zM1587.2-102.4h-1126.4c-84.694 0-153.6 68.906-153.6 153.6v819.2c0 28.278 22.924 51.2 51.2 51.2s51.2-22.922 51.2-51.2v-819.2c0-28.23 22.97-51.2 51.2-51.2h1126.4c28.23 0 51.2 22.97 51.2 51.2v819.2c0 28.278 22.922 51.2 51.2 51.2s51.2-22.922 51.2-51.2v-819.2c0-84.694-68.906-153.6-153.6-153.6z" />
<glyph unicode="&#xe602;" glyph-name="home3" data-tags="home, building, house" d="M51.184 716.8c-12.25 0-24.538 4.368-34.332 13.236-20.97 18.97-22.588 51.348-3.616 72.316l904.096 999.264c28.106 31.062 65.99 48.172 106.668 48.172 0 0 0 0 0 0 40.678 0 78.56-17.108 106.666-48.172l904.1-999.268c18.972-20.97 17.354-53.348-3.616-72.316-20.97-18.976-53.348-17.354-72.316 3.616l-904.1 999.27c-8.444 9.334-19.36 14.47-30.732 14.47s-22.292-5.14-30.736-14.474l-904.096-999.264c-10.106-11.174-24.020-16.852-37.984-16.852zM1587.2-102.4h-409.6c-28.278 0-51.2 22.922-51.2 51.2v358.4h-204.8v-358.4c0-28.278-22.924-51.2-51.2-51.2h-409.6c-84.694 0-153.6 68.906-153.6 153.6v819.2c0 28.278 22.924 51.2 51.2 51.2s51.2-22.922 51.2-51.2v-819.2c0-28.23 22.97-51.2 51.2-51.2h358.4v358.4c0 28.278 22.924 51.2 51.2 51.2h307.2c28.278 0 51.2-22.922 51.2-51.2v-358.4h358.4c28.23 0 51.2 22.97 51.2 51.2v819.2c0 28.278 22.922 51.2 51.2 51.2s51.2-22.922 51.2-51.2v-819.2c0-84.694-68.906-153.6-153.6-153.6z" />
<glyph unicode="&#xe603;" glyph-name="home4" data-tags="home, building, house" d="M51.184 716.8c-12.25 0-24.538 4.368-34.332 13.236-20.97 18.97-22.588 51.348-3.616 72.316l904.096 999.264c28.106 31.062 65.99 48.172 106.668 48.172 0 0 0 0 0 0 40.678 0 78.56-17.108 106.666-48.172l303.604-335.562-0.668 120.864c-0.074 13.628 5.286 26.724 14.896 36.388 9.61 9.66 22.676 15.094 36.304 15.094h204.8c28.278 0 51.2-22.924 51.2-51.2v-459.94l293.964-324.912c18.972-20.97 17.354-53.348-3.616-72.316-20.97-18.976-53.348-17.354-72.316 3.616l-307.2 339.532c-8.518 9.414-13.236 21.658-13.236 34.352v428.468h-102.116l1.126-203.382c0.116-21.226-12.874-40.324-32.662-48.010-19.788-7.68-42.266-2.364-56.502 13.376l-393.51 434.934c-8.444 9.334-19.36 14.47-30.732 14.47s-22.292-5.14-30.736-14.474l-904.096-999.264c-10.106-11.174-24.020-16.852-37.984-16.852zM1587.2-102.4h-409.6c-28.278 0-51.2 22.922-51.2 51.2v358.4h-204.8v-358.4c0-28.278-22.924-51.2-51.2-51.2h-409.6c-84.694 0-153.6 68.906-153.6 153.6v819.2c0 28.278 22.924 51.2 51.2 51.2s51.2-22.922 51.2-51.2v-819.2c0-28.23 22.97-51.2 51.2-51.2h358.4v358.4c0 28.278 22.924 51.2 51.2 51.2h307.2c28.278 0 51.2-22.922 51.2-51.2v-358.4h358.4c28.23 0 51.2 22.97 51.2 51.2v819.2c0 28.278 22.922 51.2 51.2 51.2s51.2-22.922 51.2-51.2v-819.2c0-84.694-68.906-153.6-153.6-153.6z" />
<glyph unicode="&#xe604;" glyph-name="home5" data-tags="home, building, house" d="M51.184 716.8c-12.25 0-24.538 4.368-34.332 13.236-20.97 18.97-22.588 51.348-3.616 72.316l904.096 999.264c28.106 31.062 65.99 48.172 106.668 48.172 0 0 0 0 0 0 40.678 0 78.56-17.108 106.666-48.172l303.604-335.562-0.668 120.864c-0.074 13.628 5.286 26.724 14.896 36.388 9.61 9.66 22.676 15.094 36.304 15.094h204.8c28.278 0 51.2-22.924 51.2-51.2v-459.94l293.964-324.912c18.972-20.97 17.354-53.348-3.616-72.316-20.97-18.976-53.348-17.354-72.316 3.616l-307.2 339.532c-8.518 9.414-13.236 21.658-13.236 34.352v428.468h-102.116l1.126-203.382c0.116-21.226-12.874-40.324-32.662-48.010-19.788-7.68-42.266-2.364-56.502 13.376l-393.51 434.934c-8.444 9.334-19.36 14.47-30.732 14.47s-22.292-5.14-30.736-14.474l-904.096-999.264c-10.106-11.174-24.020-16.852-37.984-16.852zM1587.2-102.4h-1126.4c-84.694 0-153.6 68.906-153.6 153.6v819.2c0 28.278 22.924 51.2 51.2 51.2s51.2-22.922 51.2-51.2v-819.2c0-28.23 22.97-51.2 51.2-51.2h1126.4c28.23 0 51.2 22.97 51.2 51.2v819.2c0 28.278 22.922 51.2 51.2 51.2s51.2-22.922 51.2-51.2v-819.2c0-84.694-68.906-153.6-153.6-153.6z" />
<glyph unicode="&#xe605;" glyph-name="home6" data-tags="home, building, house" d="M1484.8-102.4h-307.2c-28.278 0-51.2 22.922-51.2 51.2v358.4h-204.8v-358.4c0-28.278-22.924-51.2-51.2-51.2h-307.2c-84.694 0-153.6 68.902-153.6 153.6v627.012l-115.632-127.802c-18.902-20.886-51.12-22.586-72.108-3.804l-204.8 183.242c-10.156 9.088-16.268 21.846-16.988 35.456s4.020 26.944 13.162 37.050l904.1 999.264c28.106 31.066 65.99 48.172 106.668 48.172 40.682 0 78.564-17.108 106.666-48.172l904.1-999.268c9.142-10.106 13.882-23.44 13.162-37.046-0.72-13.61-6.832-26.372-16.988-35.46l-204.8-183.244c-20.998-18.78-53.21-17.082-72.106 3.804l-115.628 127.802-0.004-627.004c0-84.698-68.902-153.6-153.6-153.6zM1228.8 0h256c28.23 0 51.2 22.97 51.2 51.2l0.006 759.914c0 21.174 13.034 40.166 32.794 47.78 19.764 7.61 42.166 2.276 56.374-13.428l170.63-188.598 128.484 114.96-869.556 961.092c-8.444 9.334-19.36 14.47-30.732 14.47-11.376 0-22.292-5.14-30.736-14.474l-869.556-961.088 128.486-114.964 170.64 188.602c14.204 15.706 36.612 21.036 56.374 13.428 19.76-7.612 32.794-26.602 32.794-47.78v-759.914c0-28.23 22.97-51.2 51.2-51.2h256v358.4c0 28.278 22.924 51.2 51.2 51.2h307.2c28.278 0 51.2-22.922 51.2-51.2v-358.4z" />
<glyph unicode="&#xe606;" glyph-name="bathtub" data-tags="bathtub, shower" d="M1689.6-102.4h-102.4c-28.278 0-51.2 22.922-51.2 51.2s22.922 51.2 51.2 51.2h102.4c28.278 0 51.2-22.922 51.2-51.2s-22.922-51.2-51.2-51.2zM460.8-102.4h-102.4c-28.276 0-51.2 22.922-51.2 51.2s22.924 51.2 51.2 51.2h102.4c28.276 0 51.2-22.922 51.2-51.2s-22.924-51.2-51.2-51.2zM2048 665.6c0 84.698-68.902 153.6-153.6 153.6h-1587.2v972.8c0 28.23 22.97 51.2 51.2 51.2h153.6c14.576 0 40.892-10.902 51.2-21.206l12.86-12.86c-95.164-130.096-84.032-314.212 33.414-431.664 9.6-9.604 22.624-14.998 36.204-14.998 13.578 0 26.602 5.396 36.204 14.998l398.24 398.244c19.996 19.994 19.996 52.412 0 72.406-62.858 62.86-146.432 97.478-235.324 97.478-71.588 0-139.712-22.464-196.356-64.032l-12.838 12.836c-29.668 29.668-81.652 51.2-123.606 51.2h-153.6c-84.694 0-153.6-68.906-153.6-153.6v-972.8h-51.2c-84.694 0-153.6-68.902-153.6-153.6 0-66.746 42.806-123.658 102.4-144.794v-264.806c0-141.158 114.842-256 256-256h1331.2c141.158 0 256 114.842 256 256v264.806c59.594 21.132 102.4 78.048 102.4 144.794zM967.498 1807.904l-317.766-317.766c-55.956 88.976-45.242 208.186 32.15 285.578 43.52 43.516 101.38 67.482 162.918 67.482 44.1 0 86.304-12.308 122.698-35.292zM1689.6 102.4h-1331.2c-84.694 0-153.6 68.902-153.6 153.6v256h1638.4v-256c0-84.698-68.902-153.6-153.6-153.6zM1894.4 614.4h-1740.8c-28.23 0-51.2 22.97-51.2 51.2s22.97 51.2 51.2 51.2h1740.8c28.23 0 51.2-22.97 51.2-51.2s-22.97-51.2-51.2-51.2zM1024 1280c0-28.276-22.924-51.2-51.2-51.2s-51.2 22.924-51.2 51.2c0 28.276 22.924 51.2 51.2 51.2s51.2-22.924 51.2-51.2zM1024 1484.8c0-28.276-22.924-51.2-51.2-51.2s-51.2 22.924-51.2 51.2c0 28.276 22.924 51.2 51.2 51.2s51.2-22.924 51.2-51.2zM1228.8 1484.8c0-28.276-22.924-51.2-51.2-51.2s-51.2 22.924-51.2 51.2c0 28.276 22.924 51.2 51.2 51.2s51.2-22.924 51.2-51.2zM1228.8 1280c0-28.276-22.924-51.2-51.2-51.2s-51.2 22.924-51.2 51.2c0 28.276 22.924 51.2 51.2 51.2s51.2-22.924 51.2-51.2zM1433.6 1484.8c0-28.276-22.924-51.2-51.2-51.2s-51.2 22.924-51.2 51.2c0 28.276 22.924 51.2 51.2 51.2s51.2-22.924 51.2-51.2zM1024 1075.2c0-28.276-22.924-51.2-51.2-51.2s-51.2 22.924-51.2 51.2c0 28.276 22.924 51.2 51.2 51.2s51.2-22.924 51.2-51.2zM1433.6 1280c0-28.276-22.924-51.2-51.2-51.2s-51.2 22.924-51.2 51.2c0 28.276 22.924 51.2 51.2 51.2s51.2-22.924 51.2-51.2zM1228.8 1075.2c0-28.276-22.924-51.2-51.2-51.2s-51.2 22.924-51.2 51.2c0 28.276 22.924 51.2 51.2 51.2s51.2-22.924 51.2-51.2z" />
<glyph unicode="&#xe607;" glyph-name="toothbrush" data-tags="toothbrush, hygiene, dental" d="M153.6 512c-28.276 0-51.2 22.922-51.2 51.2v307.2c0 28.278 22.924 51.2 51.2 51.2s51.2-22.922 51.2-51.2v-307.2c0-28.278-22.924-51.2-51.2-51.2zM358.4 512c-28.276 0-51.2 22.922-51.2 51.2v307.2c0 28.278 22.924 51.2 51.2 51.2s51.2-22.922 51.2-51.2v-307.2c0-28.278-22.924-51.2-51.2-51.2zM563.2 512c-28.276 0-51.2 22.922-51.2 51.2v307.2c0 28.278 22.924 51.2 51.2 51.2s51.2-22.922 51.2-51.2v-307.2c0-28.278-22.924-51.2-51.2-51.2zM768 512c-28.276 0-51.2 22.922-51.2 51.2v307.2c0 28.278 22.924 51.2 51.2 51.2s51.2-22.922 51.2-51.2v-307.2c0-28.278-22.924-51.2-51.2-51.2zM1996.8 102.4h-1843.2c-84.694 0-153.6 68.902-153.6 153.6s68.906 153.6 153.6 153.6h1843.2c28.278 0 51.2-22.922 51.2-51.2s-22.922-51.2-51.2-51.2h-1843.2c-28.23 0-51.2-22.97-51.2-51.2s22.97-51.2 51.2-51.2h1843.2c28.278 0 51.2-22.922 51.2-51.2s-22.922-51.2-51.2-51.2zM972.8 512c-28.276 0-51.2 22.922-51.2 51.2v307.2c0 28.278 22.924 51.2 51.2 51.2s51.2-22.922 51.2-51.2v-307.2c0-28.278-22.924-51.2-51.2-51.2zM921.6 1024h-614.4c-169.392 0-307.2 137.808-307.2 307.2s137.808 307.2 307.2 307.2h51.2c28.276 0 51.2-22.924 51.2-51.2s-22.924-51.2-51.2-51.2c-28.23 0-51.2-22.97-51.2-51.2s22.97-51.2 51.2-51.2h563.2c112.928 0 204.8-91.872 204.8-204.8s-91.872-204.8-204.8-204.8zM206.81 1509.668c-62.276-35.168-104.41-101.988-104.41-178.468 0-112.928 91.872-204.8 204.8-204.8h614.4c56.464 0 102.4 45.936 102.4 102.4s-45.936 102.4-102.4 102.4h-563.2c-84.694 0-153.6 68.906-153.6 153.6 0 8.464 0.688 16.772 2.010 24.868z" />
<glyph unicode="&#xe608;" glyph-name="bed" data-tags="bed, hotel, sleep" d="M1792 102.4h-102.4c-28.278 0-51.2 22.922-51.2 51.2s22.922 51.2 51.2 51.2h102.4c28.278 0 51.2-22.922 51.2-51.2s-22.922-51.2-51.2-51.2zM256 102.4h-102.4c-28.276 0-51.2 22.922-51.2 51.2s22.924 51.2 51.2 51.2h102.4c28.276 0 51.2-22.922 51.2-51.2s-22.924-51.2-51.2-51.2zM1910.592 778.934l-242.438 727.312c-20.348 61.052-78.604 111.174-142.176 126.948-2.202 9.766-4.736 19.014-7.604 27.61-23.2 69.604-63.072 79.996-84.774 79.996h-409.6c-13.030 0-32.608-3.766-51.2-21.828-18.588 18.060-38.17 21.828-51.2 21.828h-409.6c-21.702 0-61.574-10.394-84.778-79.996-2.868-8.598-5.402-17.846-7.6-27.61-63.572-15.772-121.824-65.894-142.176-126.948l-242.438-727.312c-19.628-58.892-35.008-153.658-35.008-215.734v-204.8c0-84.698 68.906-153.6 153.6-153.6h1638.4c84.698 0 153.6 68.902 153.6 153.6v204.8c0 62.076-15.38 156.842-35.008 215.734zM1040.080 1638.4h377.436c7.126-16.090 16.080-52.602 16.080-102.4s-8.956-86.31-16.080-102.4h-377.436c-7.126 16.090-16.080 52.602-16.080 102.4s8.956 86.31 16.080 102.4zM528.080 1638.4h377.436c7.126-16.090 16.080-52.602 16.080-102.4s-8.956-86.31-16.080-102.4h-377.436c-7.126 16.090-16.080 52.602-16.080 102.4s8.956 86.31 16.080 102.4zM374.592 1473.866c5.532 16.602 18.966 32.42 35.338 43.952 1.412-39.686 7.424-77.012 17.292-106.618 23.204-69.606 63.076-80 84.778-80h409.6c13.030 0 32.612 3.766 51.2 21.828 18.592-18.060 38.17-21.828 51.2-21.828h409.6c21.702 0 61.574 10.394 84.774 79.996 9.868 29.606 15.882 66.934 17.296 106.618 16.368-11.532 29.802-27.35 35.338-43.952l81.69-245.062h-1359.796l81.69 245.066zM258.772 1126.4h1428.060l126.614-379.846c3.236-9.7 6.362-20.844 9.302-32.852-9.936 2.028-20.22 3.098-30.748 3.098h-1638.4c-10.528 0-20.812-1.068-30.752-3.098 2.94 12.006 6.070 23.148 9.306 32.852l126.618 379.846zM1843.2 358.4c0-28.23-22.97-51.2-51.2-51.2h-1638.4c-28.23 0-51.2 22.97-51.2 51.2v204.8c0 28.23 22.97 51.2 51.2 51.2h1638.4c28.23 0 51.2-22.97 51.2-51.2v-204.8z" />
<glyph unicode="&#xe609;" glyph-name="couch" data-tags="couch, furniture" d="M460.8 0h-102.4c-28.276 0-51.2 22.922-51.2 51.2s22.924 51.2 51.2 51.2h102.4c28.276 0 51.2-22.922 51.2-51.2s-22.924-51.2-51.2-51.2zM1689.6 0h-102.4c-28.278 0-51.2 22.922-51.2 51.2s22.922 51.2 51.2 51.2h102.4c28.278 0 51.2-22.922 51.2-51.2s-22.922-51.2-51.2-51.2zM1842.468 1223.78c-7.862 257.248-82.986 421.824-234.72 515.754-139.444 86.326-326.746 103.668-583.748 103.668s-444.3-17.34-583.75-103.668c-151.734-93.93-226.858-258.506-234.72-515.754-117.068-23.504-205.53-127.094-205.53-250.98 0-123.626 88.096-227.068 204.8-250.858v-465.942c0-84.698 68.906-153.6 153.6-153.6h1331.2c84.698 0 153.6 68.902 153.6 153.6v465.942c116.704 23.788 204.8 127.232 204.8 250.858 0 123.884-88.464 227.476-205.532 250.98zM494.15 1652.468c118.822 73.556 290.832 88.332 529.85 88.332s411.028-14.778 529.85-88.332c119.382-73.904 179.056-210.838 186.208-428.972-116.34-24.074-204.058-127.328-204.058-250.694v-153.6h-1024v153.6c0 123.366-87.718 226.62-204.060 250.694 7.156 218.134 66.832 355.068 186.212 428.972zM512 716.8h1024v-153.6c0-28.23-22.97-51.2-51.2-51.2h-921.6c-28.23 0-51.2 22.97-51.2 51.2v153.6zM1792 819.2c-28.278 0-51.2-22.922-51.2-51.2v-512c0-28.23-22.97-51.2-51.2-51.2h-1331.2c-28.23 0-51.2 22.97-51.2 51.2v512c0 28.278-22.924 51.2-51.2 51.2-84.694 0-153.6 68.902-153.6 153.6 0 84.694 68.906 153.6 153.6 153.6s153.6-68.906 153.6-153.6v-409.6c0-84.698 68.906-153.6 153.6-153.6h921.6c84.698 0 153.6 68.902 153.6 153.6v409.6c0 84.694 68.902 153.6 153.6 153.6s153.6-68.906 153.6-153.6c0-84.698-68.902-153.6-153.6-153.6zM1587.2 1331.2h-51.2c-112.928 0-204.8 91.872-204.8 204.8v51.2c0 28.276-22.922 51.2-51.2 51.2s-51.2-22.924-51.2-51.2v-51.2c0-112.928-91.872-204.8-204.8-204.8s-204.8 91.872-204.8 204.8v51.2c0 28.276-22.924 51.2-51.2 51.2s-51.2-22.924-51.2-51.2v-51.2c0-112.928-91.872-204.8-204.8-204.8h-51.2c-28.276 0-51.2-22.924-51.2-51.2s22.924-51.2 51.2-51.2h51.2c112.928 0 204.8-91.872 204.8-204.8v-51.2c0-28.278 22.924-51.2 51.2-51.2s51.2 22.922 51.2 51.2v51.2c0 112.928 91.872 204.8 204.8 204.8s204.8-91.872 204.8-204.8v-51.2c0-28.278 22.922-51.2 51.2-51.2s51.2 22.922 51.2 51.2v51.2c0 112.928 91.872 204.8 204.8 204.8h51.2c28.278 0 51.2 22.924 51.2 51.2s-22.922 51.2-51.2 51.2zM768 1193.61c-22.748 34.22-52.166 63.638-86.39 86.39 34.22 22.748 63.638 52.166 86.39 86.39 22.748-34.22 52.166-63.638 86.39-86.39-34.224-22.748-63.642-52.166-86.39-86.39zM1280 1193.61c-22.748 34.22-52.166 63.638-86.39 86.39 34.224 22.748 63.642 52.166 86.39 86.39 22.748-34.22 52.166-63.638 86.39-86.39-34.224-22.748-63.642-52.166-86.39-86.39z" />
<glyph unicode="&#xe60a;" glyph-name="chair" data-tags="chair, furniture" d="M1638.4 563.2v51.2c0 43.792-32.9 116.054-65.402 164.804l-91.2 136.794c-24.746 37.124-42.132 108.582-37.204 152.922l68.474 616.282c7.644 68.812-12.572 134-56.924 183.556-44.348 49.556-106.906 76.844-176.144 76.844h-614.4c-69.236 0-131.796-27.29-176.148-76.844s-64.57-114.742-56.924-183.556l68.474-616.278c4.928-44.342-12.46-115.802-37.206-152.924l-91.196-136.794c-32.5-48.748-65.398-121.014-65.398-164.804v-51.2c0-56.372 30.548-105.718 75.94-132.442-33.984-73.508-75.94-217.744-75.94-481.958 0-28.278 22.924-51.2 51.2-51.2s51.2 22.922 51.2 51.2c0 293.782 54.278 419.936 77.796 460.8h127.004v-256c0-28.278 22.924-51.2 51.2-51.2s51.2 22.922 51.2 51.2v256h512v-256c0-28.278 22.922-51.2 51.2-51.2s51.2 22.922 51.2 51.2v256h127.012c23.52-40.852 77.814-167.002 77.788-460.794-0.004-28.278 22.918-51.204 51.194-51.206 0.004 0 0.004 0 0.006 0 28.272 0 51.196 22.922 51.2 51.194 0.026 264.218-41.936 408.46-75.932 481.972 45.388 26.724 75.932 76.068 75.932 132.436zM1484.8 512h-1024c-28.23 0-51.2 22.97-51.2 51.2s22.97 51.2 51.2 51.2h1024c28.23 0 51.2-22.97 51.2-51.2s-22.97-51.2-51.2-51.2zM548.998 859.196c37.652 56.476 61.274 153.568 53.78 221.030l-68.474 616.282c-4.388 39.476 6.784 76.394 31.45 103.956 24.668 27.558 60.128 42.736 99.846 42.736h614.4c39.718 0 75.178-15.178 99.844-42.736 24.668-27.562 35.84-64.48 31.452-103.956l-68.474-616.278c-7.498-67.462 16.122-164.55 53.78-221.034l91.2-136.794c1.276-1.92 2.528-3.846 3.76-5.776-2.244 0.096-4.492 0.172-6.758 0.172h-1024.004c-2.266 0-4.516-0.074-6.756-0.172 1.232 1.93 2.48 3.856 3.76 5.776l91.194 136.794zM1228.8 921.6h-512c-28.276 0-51.2 22.924-51.2 51.2s22.924 51.2 51.2 51.2h512c28.278 0 51.2-22.924 51.2-51.2s-22.922-51.2-51.2-51.2zM1280 1433.6h-51.2c-112.928 0-204.8 91.872-204.8 204.8v51.2c0 28.276-22.924 51.2-51.2 51.2s-51.2-22.924-51.2-51.2v-51.2c0-112.928-91.872-204.8-204.8-204.8h-51.2c-28.276 0-51.2-22.924-51.2-51.2s22.924-51.2 51.2-51.2h51.2c112.928 0 204.8-91.872 204.8-204.8v-51.2c0-28.276 22.924-51.2 51.2-51.2s51.2 22.924 51.2 51.2v51.2c0 112.928 91.872 204.8 204.8 204.8h51.2c28.278 0 51.2 22.924 51.2 51.2s-22.922 51.2-51.2 51.2zM972.8 1296.010c-22.748 34.22-52.166 63.638-86.39 86.39 34.22 22.748 63.638 52.166 86.39 86.39 22.748-34.22 52.166-63.638 86.39-86.39-34.224-22.748-63.642-52.166-86.39-86.39z" />
<glyph unicode="&#xe60b;" glyph-name="city" data-tags="city, building, business, work, office" d="M921.6 921.6h102.4v-102.4h-102.4v102.4zM1126.4 921.6h102.4v-102.4h-102.4v102.4zM1331.2 921.6h102.4v-102.4h-102.4v102.4zM1536 921.6h102.4v-102.4h-102.4v102.4zM921.6 614.4h102.4v-102.4h-102.4v102.4zM1126.4 614.4h102.4v-102.4h-102.4v102.4zM1331.2 614.4h102.4v-102.4h-102.4v102.4zM1536 614.4h102.4v-102.4h-102.4v102.4zM921.6 307.2h102.4v-102.4h-102.4v102.4zM1126.4 307.2h102.4v-102.4h-102.4v102.4zM1331.2 307.2h102.4v-102.4h-102.4v102.4zM1536 307.2h102.4v-102.4h-102.4v102.4zM1792 1228.8h-51.2v256c0 13.58-5.396 26.602-14.998 36.202l-189.802 189.804v183.594c0 28.276-22.922 51.2-51.2 51.2s-51.2-22.924-51.2-51.2v-183.594l-189.802-189.802c-9.604-9.6-14.998-22.624-14.998-36.202v-51.2h-204.8v255.996c0 28.276-22.924 51.2-51.2 51.2h-819.2c-28.276 0-51.2-22.924-51.2-51.2v-1740.8c0-28.278 22.924-51.2 51.2-51.2h1638.4c28.278 0 51.2 22.922 51.2 51.2v1228.8c0 28.276-22.922 51.2-51.2 51.2zM1331.2 1463.594l153.6 153.6 153.6-153.6v-234.794h-102.4v153.6c0 28.276-22.922 51.2-51.2 51.2h-153.6v29.994zM1433.6 1331.2v-102.4h-409.6v102.4h409.6zM716.8 1177.6v-1177.6h-512v1638.4h716.8v-409.6h-153.6c-28.276 0-51.2-22.924-51.2-51.2zM1740.8 0h-921.6v1126.4h921.6v-1126.4zM716.8 1536h102.4v-204.8h-102.4v204.8zM512 1536h102.4v-204.8h-102.4v204.8zM307.2 1536h102.4v-204.8h-102.4v204.8zM307.2 1228.8h102.4v-204.8h-102.4v204.8zM512 1228.8h102.4v-204.8h-102.4v204.8zM307.2 921.6h102.4v-204.8h-102.4v204.8zM512 921.6h102.4v-204.8h-102.4v204.8zM307.2 614.4h102.4v-204.8h-102.4v204.8zM512 614.4h102.4v-204.8h-102.4v204.8zM307.2 307.2h102.4v-204.8h-102.4v204.8zM512 307.2h102.4v-204.8h-102.4v204.8z" />
<glyph unicode="&#xe60c;" glyph-name="apartment" data-tags="apartment, building, city, business, work, office" d="M1433.6 1331.2h102.4v-102.4h-102.4v102.4zM1433.6 1126.4h102.4v-102.4h-102.4v102.4zM1433.6 921.6h102.4v-102.4h-102.4v102.4zM1433.6 716.8h102.4v-102.4h-102.4v102.4zM1433.6 307.2h102.4v-102.4h-102.4v102.4zM1433.6 512h102.4v-102.4h-102.4v102.4zM614.4 1331.2h102.4v-102.4h-102.4v102.4zM614.4 1126.4h102.4v-102.4h-102.4v102.4zM614.4 921.6h102.4v-102.4h-102.4v102.4zM614.4 716.8h102.4v-102.4h-102.4v102.4zM614.4 307.2h102.4v-102.4h-102.4v102.4zM614.4 512h102.4v-102.4h-102.4v102.4zM409.6 1331.2h102.4v-102.4h-102.4v102.4zM409.6 1126.4h102.4v-102.4h-102.4v102.4zM409.6 921.6h102.4v-102.4h-102.4v102.4zM409.6 716.8h102.4v-102.4h-102.4v102.4zM409.6 307.2h102.4v-102.4h-102.4v102.4zM409.6 512h102.4v-102.4h-102.4v102.4zM819.2 1331.2h102.4v-102.4h-102.4v102.4zM819.2 1126.4h102.4v-102.4h-102.4v102.4zM819.2 921.6h102.4v-102.4h-102.4v102.4zM819.2 716.8h102.4v-102.4h-102.4v102.4zM819.2 307.2h102.4v-102.4h-102.4v102.4zM819.2 512h102.4v-102.4h-102.4v102.4zM1894.4 0h-51.2v1382.4c0 78.116-58.048 158.652-132.154 183.354l-482.246 160.748v167.898c0 16.186-7.654 31.418-20.636 41.078-12.986 9.658-29.776 12.612-45.274 7.962l-925.92-277.772c-75.46-22.64-134.57-102.086-134.57-180.868v-1484.8h-51.2c-28.276 0-51.2-22.922-51.2-51.2s22.924-51.2 51.2-51.2h1843.2c28.278 0 51.2 22.922 51.2 51.2s-22.922 51.2-51.2 51.2zM1678.666 1468.608c32.518-10.838 62.134-51.93 62.134-86.208v-1382.4h-512v1618.564l449.866-149.956zM204.8 1484.8c0 33.654 29.356 73.114 61.594 82.784l860.006 258.004v-1825.588h-921.6v1484.8z" />
<glyph unicode="&#xe60d;" glyph-name="pencil" data-tags="pencil, write, edit" d="M1956.202 1853.804c-57.54 57.536-134.036 89.222-215.402 89.222-81.37 0-157.866-31.686-215.402-89.222l-1305.6-1305.6c-5.29-5.29-9.356-11.674-11.914-18.708l-204.8-563.2c-6.8-18.694-2.154-39.636 11.914-53.7 9.77-9.776 22.86-14.998 36.208-14.998 5.866 0 11.782 1.004 17.488 3.082l563.2 204.8c7.030 2.56 13.418 6.624 18.708 11.916l1305.6 1305.6c57.536 57.536 89.226 134.036 89.226 215.404s-31.686 157.866-89.226 215.402zM586.228 197.834l-449.418-163.42 163.424 449.414 1133.366 1133.366 285.994-285.994-1133.366-1133.366zM1883.798 1495.404l-91.798-91.798-285.994 285.994 91.798 91.798c38.196 38.196 88.98 59.228 142.996 59.228s104.8-21.036 142.998-59.232c38.196-38.196 59.232-88.98 59.232-142.996s-21.040-104.8-59.232-142.996z" />
<glyph unicode="&#xe60e;" glyph-name="pencil2" data-tags="pencil, write, edit" d="M51.206-102.4c-13.35 0-26.438 5.222-36.212 14.998-14.068 14.068-18.71 35.004-11.914 53.7l204.8 563.2c2.556 7.030 6.624 13.414 11.914 18.708l1382.4 1382.4c19.994 19.994 52.412 19.994 72.406 0l358.4-358.4c19.996-19.996 19.996-52.412 0-72.41l-1382.4-1382.4c-5.29-5.29-11.676-9.356-18.708-11.916l-563.2-204.8c-5.702-2.074-11.622-3.078-17.488-3.078zM300.236 483.828l-163.424-449.414 449.418 163.42 1338.16 1338.166-285.99 285.994-1338.164-1338.166z" />
<glyph unicode="&#xe60f;" glyph-name="pen" data-tags="pen, write, edit" d="M2004.202 1901.804c-28.624 28.628-67.1 43.14-114.356 43.14-77.104 0-180.78-40.346-309.382-120.192-41.204 43.562-119.504 110.298-218.204 118.314-78.79 6.394-153.114-24.71-220.864-92.46-143.914-143.914-214.732-319.584-261.596-435.828-15.924-39.5-35.74-88.666-45.604-98.79-3.356-3.356-13.536-13.532-31.092 1.284-20.068 18.922-51.674 18.564-71.308-1.066-19.996-19.996-19.996-52.412 0-72.406 8.388-8.39 29.952-24.652 57.572-32.4 11.104-3.116 22.128-4.656 32.938-4.656 12.982 0 25.652 2.25 37.786 6.628-14.054-14.404-28.084-28.906-42.070-43.514-360.106-376.156-763.924-892.246-817.322-1212.636-2.72-16.314 2.608-32.932 14.298-44.62 9.68-9.684 22.74-14.998 36.204-14.998 2.796 0 5.612 0.228 8.42 0.698 133.932 22.324 310.518 107.062 524.842 251.868 189.594 128.092 399.932 297.74 608.278 490.596 203.204 188.090 388.556 383.222 536.020 564.304 110.186 135.3 251.748 328.484 300.448 480.442 30.804 96.128 22.39 168.902-25.004 216.298zM1213.802 1778.198c46.052 46.052 91.782 66.618 139.78 62.836 57.404-4.502 107.862-42.822 139.786-73.75-25.248-17.564-51.284-36.394-78.134-56.538-145.852-109.42-311.312-254.822-476.16-417.862 10.988 22.336 22.164 50.020 35.706 83.606 43.754 108.534 109.872 272.554 239.024 401.708zM310.868 384.726l176.342-176.342c-139.82-91.292-264.58-156.278-365.564-189.162 32.966 101.030 98.15 225.942 189.222 365.504zM1123.178 715.908c-192.080-177.798-379.868-330.532-549.584-449.094l-204.326 204.33c135.28 193.792 314.49 410.39 522.724 627.9 241.85 252.624 480.774 461.27 671.988 592.58l229.798-229.804c-146.532-213.594-387.636-483.99-670.598-745.91zM1931.686 1716.756c-15.158-47.302-42.764-103.718-81.012-167.024l-198.806 198.806c100.148 60.564 182.294 94.006 237.978 94.006 28.8 0 38.698-9.898 41.948-13.148 23.716-23.712 10.112-80.752-0.108-112.64z" />
<glyph unicode="&#xe610;" glyph-name="pencil3" data-tags="pencil, write, edit" d="M1996.8 1331.2c0 282.316-229.68 512-512 512-77.148 0-151.328-16.748-220.468-49.78-5.402-2.58-10.096-6.020-14.1-10.026l-0.032 0.032-1081.606-1081.626c-7.834-7.834-12.916-17.996-14.48-28.964l-102.4-716.8c-2.278-15.952 3.084-32.052 14.484-43.444 9.668-9.668 22.724-14.998 36.198-14.998 2.406 0 4.826 0.17 7.244 0.516l716.8 102.4c10.966 1.564 21.13 6.646 28.964 14.48l1080.826 1080.8c0.028 0.026 0.054 0.054 0.076 0.076l0.714 0.714-0.010 0.010c4.004 4.004 7.42 8.724 10.004 14.122 33.036 69.152 49.786 143.332 49.786 220.486zM1894.4 1331.2c0-58.912-12.208-115.6-36.244-168.656l-117.78-117.78c-10.72 294.068-247.942 531.292-542.012 542.012l117.782 117.782c53.056 24.032 109.748 36.24 168.652 36.24 225.852 0 409.6-183.744 409.6-409.6zM205.318 307.188l43.36 303.532c19.35 2.444 38.928 3.68 58.522 3.68 254.086 0 460.8-206.714 460.8-460.8 0-19.594-1.248-39.168-3.692-58.522l-303.52-43.36c-0.282 140.748-114.72 255.188-255.468 255.468zM1087.6 1476.006c29.482 5.83 59.684 8.794 90 8.794 108.636 0 208.596-37.812 287.46-100.934l-797.66-797.66c-92.736 77.348-210.624 125.472-339.418 130.172l759.62 759.628zM739.808 513.798l797.658 797.66c63.124-78.864 100.934-178.822 100.934-287.46 0-30.31-2.966-60.516-8.794-90.004l-759.628-759.612c-4.698 128.79-52.826 246.678-130.17 339.414zM190.596 204.128c4.708 0.428 9.444 0.672 14.204 0.672 84.694 0 153.6-68.902 153.6-153.6 0-4.762-0.244-9.498-0.672-14.202l-194.988-27.856 27.856 194.986z" />
<glyph unicode="&#xe611;" glyph-name="eraser" data-tags="eraser, rubber" d="M2018.822 1237.706c-2.634 15.824-7.898 31.228-15.834 45.692-11.724 21.356-28.272 38.928-48.292 51.802-0.166 0.112-0.34 0.214-0.506 0.326-1.072 0.684-2.148 1.37-3.242 2.028-9.798 6.080-20.988 11.094-33.462 14.842-2.506 0.762-5.044 1.468-7.612 2.112l-620.516 155.13c-16.544 4.134-34.8 6.234-54.26 6.234-61.322 0-127.958-21.008-169.766-53.52l-759.94-591.068c-52.188-40.592-109.444-121.52-130.348-184.236l-140.038-420.112c-13.174-39.526-9.622-80.98 10-116.732 19.626-35.75 52.694-61.002 93.114-71.11l620.518-155.132c16.54-4.134 34.8-6.23 54.26-6.23 48.586 0 100.454 13.22 140.714 34.868 9.356 4.66 19.012 10.848 29.050 18.656l759.94 591.062c52.188 40.596 109.444 121.52 130.348 184.236l140.038 420.112c9.388 28.164 11.318 51.622 5.834 71.044zM1235.1 1413.468c10.94 0 21.116-1.098 29.424-3.178l617.812-154.452-757.738-589.356c-24.192-18.816-68.148-31.956-106.896-31.952-10.94 0-21.116 1.098-29.424 3.174l-617.818 154.458 757.74 589.354c24.188 18.812 68.148 31.952 106.9 31.952zM134.778 199.482c-5.744 10.46-6.676 22.916-2.624 35.072l140.038 420.116c9.424 28.276 41.802 46.068 70.73 38.828 0 0 0 0 0.004 0l620.518-155.132c12.432-3.108 22.442-10.582 28.186-21.040 5.74-10.464 6.672-22.918 2.62-35.076l-140.042-420.116c-9.428-28.276-41.834-46.060-70.732-38.828l-105.46 26.364c-0.004 0-0.010 0.004-0.016 0.004l-515.040 128.764c-12.432 3.104-22.442 10.58-28.182 21.044zM1679.734 643.146l-707.284-550.108 118.94 356.828c14.64 43.916 59.532 107.37 96.074 135.788l707.286 550.112-118.944-356.832c-14.636-43.914-59.532-107.366-96.074-135.788z" />
<glyph unicode="&#xe612;" glyph-name="pencil4" data-tags="pencil, write, edit" d="M358.406 204.8c-13.35 0-26.438 5.226-36.212 15.002-14.068 14.068-18.714 35.002-11.914 53.696l204.8 563.2c2.556 7.030 6.624 13.414 11.914 18.71l1075.2 1075.2c19.994 19.996 52.416 19.996 72.406 0l358.4-358.4c20-19.994 20-52.412 0-72.406l-1075.2-1075.2c-5.29-5.29-11.674-9.36-18.708-11.92l-563.2-204.8c-5.702-2.076-11.622-3.082-17.488-3.082zM607.436 791.024l-163.424-449.412 449.418 163.42 1030.964 1030.966-285.994 285.994-1030.964-1030.97zM1792-102.4h-1638.4c-84.694 0-153.6 68.902-153.6 153.6v1638.4c0 84.694 68.906 153.6 153.6 153.6h1024c28.278 0 51.2-22.924 51.2-51.2s-22.922-51.2-51.2-51.2h-1024c-28.23 0-51.2-22.97-51.2-51.2v-1638.4c0-28.23 22.97-51.2 51.2-51.2h1638.4c28.23 0 51.2 22.97 51.2 51.2v1024c0 28.276 22.922 51.2 51.2 51.2s51.2-22.924 51.2-51.2v-1024c0-84.698-68.902-153.6-153.6-153.6z" />
<glyph unicode="&#xe613;" glyph-name="pencil5" data-tags="pencil, write, edit" d="M1956.198 1853.804c-57.536 57.536-134.032 89.222-215.398 89.222-81.37 0-157.866-31.686-215.398-89.222l-998.4-998.4c-5.29-5.29-9.356-11.674-11.914-18.714l-204.8-563.2c-6.8-18.694-2.154-39.636 11.914-53.696 9.77-9.78 22.86-15.002 36.208-15.002 5.866 0 11.782 1.002 17.488 3.082l563.2 204.8c7.030 2.56 13.418 6.624 18.708 11.92l998.4 998.4c57.532 57.536 89.228 134.036 89.228 215.404-0.006 81.372-31.692 157.868-89.236 215.404zM893.428 505.034l-449.418-163.42 163.424 449.412 826.166 826.17 285.994-285.994-826.166-826.166zM1883.802 1495.404l-91.802-91.798-285.994 285.994 91.802 91.798c38.192 38.196 88.976 59.228 142.992 59.228s104.8-21.036 143.002-59.232c38.192-38.196 59.228-88.98 59.228-142.996s-21.040-104.8-59.228-142.996zM1792-102.4h-1638.4c-84.694 0-153.6 68.902-153.6 153.6v1638.4c0 84.694 68.906 153.6 153.6 153.6h1024c28.278 0 51.2-22.924 51.2-51.2s-22.922-51.2-51.2-51.2h-1024c-28.23 0-51.2-22.97-51.2-51.2v-1638.4c0-28.23 22.97-51.2 51.2-51.2h1638.4c28.23 0 51.2 22.97 51.2 51.2v1024c0 28.276 22.922 51.2 51.2 51.2s51.2-22.924 51.2-51.2v-1024c0-84.698-68.902-153.6-153.6-153.6z" />
<glyph unicode="&#xe614;" glyph-name="feather" data-tags="feather, write, quill" d="M51.242-102.4c-0.906 0-1.812 0.022-2.726 0.070-27.836 1.46-49.388 24.918-48.49 52.778 12.074 374.304 112.23 710.618 297.684 999.604 152.288 237.302 361.492 442.474 621.804 609.818 248.394 159.68 494.636 252.732 657.476 302.678 187.044 57.372 345.622 83.052 419.812 83.052 28.278 0 51.2-22.924 51.2-51.2 0-123.606-118.148-241.754-168.598-292.204-81.974-81.978-232.96-134.4-378.976-185.098-45.802-15.904-92.108-31.98-135.276-48.682 144.42 12.572 287.316 14.020 344.772 14.020 8.966 0 13.84-0.042 13.84-0.042 19.004-0.166 36.358-10.844 45.068-27.734 8.708-16.892 7.348-37.216-3.54-52.796-109.622-156.836-243.306-279.012-408.688-373.516-77.532-44.3-163.356-64.934-270.1-64.934-63.116 0-127.158 7.132-189.092 14.028-60.688 6.758-123.444 13.748-183.964 13.748-111.462 0-196.41-23.498-275.446-76.186-283.078-188.72-335.242-863.126-335.734-869.914-1.956-26.89-24.372-47.488-51.024-47.488zM1932.524 1838.4c-176.918-21.638-576.876-119.892-957.638-364.666-195.462-125.654-411.468-308.012-579.808-564.564 91.914 57.532 193.572 84.416 318.364 84.416 66.204 0 131.834-7.308 195.3-14.378 61.878-6.89 120.33-13.402 177.76-13.402 88.192 0 157.872 16.348 219.292 51.446 123.946 70.826 225.418 155.27 313.548 261.686-127.876-2.858-346.842-13.004-479.77-48.416-20.572-5.482-42.4 2.348-54.804 19.66-12.4 17.312-12.79 40.496-0.976 58.214 62.836 94.256 218.372 148.26 383.040 205.434 135.1 46.908 274.796 95.412 340.156 160.772 29.504 29.498 97.030 97.028 125.532 163.796z" />
<glyph unicode="&#xe615;" glyph-name="feather2" data-tags="feather, write, quill" d="M51.242-102.394c-0.928 0-1.856 0.026-2.794 0.074-27.808 1.498-49.322 24.938-48.422 52.768 12.074 374.304 112.23 710.618 297.684 999.604 152.288 237.302 361.492 442.474 621.804 609.818 248.394 159.68 494.636 252.732 657.476 302.678 187.044 57.372 345.622 83.052 419.812 83.052 28.278 0 51.2-22.924 51.2-51.2s-22.922-51.2-51.2-51.2c-119.398 0-583.396-87.562-1021.914-369.468-192.98-124.058-406.012-303.43-573.402-554.868 58.026 36.452 124.79 59.446 201.878 69.74 97.61 13.034 200.224 4.54 299.46-3.674 149.196-12.356 290.118-24.020 405.478 33.664 191.116 95.558 338.886 290.198 340.356 292.15 16.996 22.592 49.078 27.156 71.676 10.18 22.598-16.972 27.18-49.034 10.22-71.644-6.57-8.756-163.302-215.692-376.464-322.276-141.018-70.506-303.044-57.098-459.722-44.124-189.924 15.724-369.316 30.572-499.77-99.884-244.98-244.98-291.904-832.134-292.348-838.036-2.020-26.832-24.412-47.354-51.008-47.354zM1177.626 1331.188c-19.782 0-38.618 11.53-46.996 30.832-11.258 25.94 0.65 56.092 26.592 67.348 201.802 87.564 659.092 209.034 737.178 209.034 28.278 0 51.2-22.924 51.2-51.2s-22.922-51.2-51.2-51.2c-54.038 0-490.854-111.376-696.422-200.57-6.634-2.88-13.548-4.244-20.352-4.244z" />
<glyph unicode="&#xe616;" glyph-name="feather3" data-tags="feather, write, quill" d="M460.86 409.596c-1.754 0-3.52 0.086-5.302 0.272-27.964 2.876-48.38 27.766-45.732 55.756 24.428 258.070 108.796 490.086 250.758 689.604 116.486 163.716 271.286 305.306 460.1 420.842 326.64 199.866 668.096 267.13 773.716 267.13 28.278 0 51.2-22.924 51.2-51.2 0-96.666-89.818-186.484-128.176-224.838-62.592-62.588-175.324-101.732-284.348-139.584-3.168-1.1-6.342-2.202-9.532-3.312 69.834 3.45 129.91 3.968 159.462 3.968 6.688 0 10.33-0.032 10.33-0.032 19.004-0.166 36.358-10.844 45.066-27.734 8.71-16.892 7.35-37.216-3.536-52.796-81.93-117.212-181.86-208.538-305.498-279.2-59.252-33.856-124.612-49.626-205.706-49.626-47.264 0-94.828 5.3-140.826 10.42-44.352 4.94-90.212 10.048-134.068 10.048-79.306 0-139.594-16.614-195.478-53.872-1.766-1.178-3.604-2.244-5.5-3.194-74.208-37.108-138.468-138.34-185.824-292.758-37.572-122.5-50.15-233.244-50.272-234.346-2.912-26.16-25.066-45.546-50.832-45.546zM1823.19 1733.85c-133.588-20.496-394.374-89.29-649.056-245.126-140.94-86.24-298.732-211.718-425.696-388.48 58.998 28.15 123.99 41.472 200.326 41.472 49.54 0 98.272-5.428 145.402-10.676 45.21-5.036 87.914-9.792 129.492-9.792 62.54 0 111.76 11.482 154.896 36.132 80.8 46.18 148.432 100.332 207.696 166.852-95.024-2.956-233.13-11.27-320.026-34.416-20.57-5.482-42.396 2.346-54.804 19.664-12.4 17.316-12.788 40.496-0.976 58.214 48.82 73.22 165.504 113.732 289.040 156.624 98.108 34.064 199.558 69.286 245.532 115.258 16.202 16.196 54.484 54.48 78.172 94.276zM774.948 212.48c-0.58 0.636-58.148 65.68-58.148 145.92 0 36.87-19.788 71.82-55.724 98.41-22.732 16.822-54.796 12.026-71.612-10.708-16.82-22.732-12.026-54.794 10.708-71.612 11.696-8.652 14.23-14.988 14.23-16.090 0-1.772-5.508-13.526-31.68-26.612-31.254-15.626-75.69-24.588-121.92-24.588s-90.666 8.964-121.92 24.588c-26.172 13.088-31.68 24.842-31.68 26.612 0 0.868 1.644 5.52 9.684 12.468 21.392 18.49 23.744 50.822 5.254 72.214-18.492 21.398-50.822 23.744-72.218 5.254-37.292-32.23-45.12-66.698-45.12-89.936 0-80.364-57.722-145.44-58.148-145.92-55.642-60.7-55.642-159.462 0-220.164 8.886-9.692 93.204-94.716 314.148-94.716s305.26 85.024 314.148 94.72c55.642 60.698 55.642 159.462 0 220.16zM699.466 61.514c-0.566-0.618-64.22-61.514-238.666-61.514-169.6 0-234.774 57.962-239.184 62.090-19.444 21.872-19.27 59.606 0.522 81.196 2.256 2.46 37.472 41.504 61.876 101.696 2.954-1.636 5.968-3.236 9.076-4.788 45.652-22.822 105.212-35.396 167.712-35.396s122.060 12.572 167.712 35.398c3.108 1.552 6.122 3.152 9.076 4.788 24.404-60.196 59.62-99.238 61.876-101.696 19.968-21.782 19.968-59.996 0.004-81.776z" />
<glyph unicode="&#xe617;" glyph-name="pen2" data-tags="pen, write, edit" d="M1628.16 696.32c-267.276 356.364-423.536 867.866-448.112 983.466 30.656 28.74 48.752 69.34 48.752 112.214 0 84.694-68.902 153.6-153.6 153.6-30.532 0-70.596-2.98-102.4-23.652-31.804 20.672-71.866 23.652-102.4 23.652-84.694 0-153.6-68.906-153.6-153.6 0-42.874 18.1-83.482 48.758-112.22-24.576-115.596-180.842-627.092-448.118-983.46-15.29-20.38-13.26-48.906 4.756-66.922 74.506-74.506 257.942-285.676 287.98-436.364-41.738-17.556-84.038-54.714-126.336-111.114-40.704-54.268-67.706-107.962-68.836-110.22-7.932-15.872-7.088-34.72 2.244-49.814 9.328-15.094 25.808-24.282 43.552-24.282h1024c17.744 0 34.224 9.188 43.552 24.282 9.328 15.098 10.18 33.942 2.24 49.814-1.13 2.26-28.132 55.952-68.836 110.22-42.298 56.396-84.596 93.548-126.33 111.11 30.074 150.502 213.482 361.798 287.972 436.368 18.022 18.012 20.048 46.538 4.762 66.922zM972.8 716.8c28.23 0 51.2-22.97 51.2-51.2s-22.97-51.2-51.2-51.2-51.2 22.97-51.2 51.2 22.97 51.2 51.2 51.2zM1394.662 0h-843.724c37.536 54.18 83.148 102.4 114.662 102.4h614.4c31.516 0 77.132-48.228 114.662-102.4zM1392.64 517.12c-90.284-120.374-143.606-225.13-159.094-312.32h-521.494c-15.484 87.19-68.81 191.942-159.092 312.32-49.094 65.46-97.766 120.33-127.948 152.854 149.892 210.342 260.022 457.972 327.252 632.89 34.934 90.902 66.876 184.972 89.932 264.88 33.596 116.422 30.022 133.926 27.884 144.384-3.072 15.056-12.276 27.994-25.244 35.494-15.812 9.146-25.636 26.15-25.636 44.378 0 28.23 22.97 51.2 51.2 51.2 38.89 0 47.418-7.812 47.472-7.892 3.728-5.396 3.728-28.212 3.728-43.308v-981.606c-59.594-21.136-102.4-78.048-102.4-144.794 0-84.698 68.906-153.6 153.6-153.6 84.698 0 153.6 68.902 153.6 153.6 0 66.746-42.806 123.66-102.4 144.794v981.606c0 15.098 0 37.914 3.728 43.308 0.054 0.080 8.582 7.892 47.472 7.892 28.23 0 51.2-22.97 51.2-51.2 0-18.224-9.82-35.228-25.636-44.38-12.97-7.508-22.17-20.444-25.242-35.498-2.134-10.458-5.706-27.962 27.888-144.38 23.056-79.91 54.998-173.98 89.932-264.88 67.226-174.918 177.354-422.544 327.244-632.89-30.182-32.524-78.854-87.392-127.948-152.852z" />
<glyph unicode="&#xe618;" glyph-name="pen-add" data-tags="pen-add" d="M1320.96 696.32c-267.276 356.364-423.536 867.866-448.112 983.466 30.652 28.736 48.752 69.344 48.752 112.214 0 84.694-68.906 153.6-153.6 153.6-30.534 0-70.596-2.98-102.4-23.652-31.804 20.672-71.866 23.652-102.4 23.652-84.694 0-153.6-68.906-153.6-153.6 0-42.876 18.1-83.484 48.758-112.22-24.576-115.596-180.838-627.084-448.118-983.46-15.29-20.38-13.26-48.906 4.756-66.922 74.506-74.506 257.942-285.676 287.98-436.364-41.738-17.556-84.038-54.714-126.336-111.114-40.704-54.268-67.706-107.962-68.836-110.22-7.932-15.872-7.088-34.72 2.244-49.814 9.328-15.098 25.808-24.284 43.552-24.284h1024c17.744 0 34.224 9.188 43.552 24.282 9.328 15.098 10.18 33.942 2.24 49.814-1.13 2.26-28.132 55.952-68.836 110.22-42.298 56.396-84.596 93.548-126.33 111.11 30.074 150.502 213.482 361.798 287.972 436.368 18.022 18.016 20.048 46.54 4.762 66.924zM665.6 716.8c28.23 0 51.2-22.97 51.2-51.2s-22.97-51.2-51.2-51.2-51.2 22.97-51.2 51.2 22.97 51.2 51.2 51.2zM1087.462 0h-843.724c37.536 54.18 83.148 102.4 114.662 102.4h614.4c31.516 0 77.132-48.228 114.662-102.4zM1085.44 517.12c-90.282-120.374-143.606-225.13-159.092-312.32h-521.498c-15.484 87.19-68.81 191.942-159.092 312.32-49.094 65.46-97.766 120.33-127.948 152.854 149.892 210.342 260.022 457.972 327.252 632.89 34.938 90.902 66.876 184.972 89.936 264.88 33.596 116.422 30.020 133.926 27.884 144.384-3.072 15.056-12.278 27.994-25.248 35.494-15.814 9.146-25.636 26.15-25.636 44.378 0 28.23 22.97 51.2 51.2 51.2 38.89 0 47.418-7.812 47.472-7.892 3.728-5.396 3.728-28.212 3.728-43.308v-981.606c-59.594-21.136-102.4-78.048-102.4-144.794 0-84.698 68.906-153.6 153.6-153.6s153.6 68.902 153.6 153.6c0 66.746-42.806 123.658-102.4 144.794v981.606c0 15.098 0 37.914 3.728 43.308 0.054 0.080 8.582 7.892 47.472 7.892 28.23 0 51.2-22.97 51.2-51.2 0-18.224-9.82-35.228-25.632-44.38-12.97-7.508-22.17-20.444-25.242-35.498-2.134-10.458-5.706-27.962 27.888-144.38 23.060-79.91 54.998-173.98 89.932-264.88 67.226-174.918 177.354-422.544 327.244-632.89-30.186-32.524-78.858-87.392-127.952-152.852zM1894.4 1536h-256v256c0 28.276-22.922 51.2-51.2 51.2s-51.2-22.924-51.2-51.2v-256h-256c-28.278 0-51.2-22.924-51.2-51.2s22.922-51.2 51.2-51.2h256v-256c0-28.276 22.922-51.2 51.2-51.2s51.2 22.924 51.2 51.2v256h256c28.278 0 51.2 22.924 51.2 51.2s-22.922 51.2-51.2 51.2z" />
</font>
</defs>
</svg>
